<?xml  version="1.0" encoding="UTF-8"?>
<!DOCTYPE svg PUBLIC "-//W3C//DTD SVG 1.0//EN" "http://www.w3.org/TR/2001/REC-SVG-20010904/DTD/svg10.dtd" >
<svg xmlns="http://www.w3.org/2000/svg" >
<metadata>
<version>1.0</version>
<id><![CDATA[Avenir LT W01 85 Heavy]]></id>
<vendor>Monotype Imaging Inc.</vendor>
<credits>
<name>Fonts.com WebFonts</name>
<URL>http://webfonts.fonts.com</URL>
<role>Home of the Web fonts</role>
</credits>
<license>
<URL>http://webfonts.fonts.com/Legal</URL>
</license>
<copyright><![CDATA[Part of the digitally encoded machine readable outline data for producing the Typefaces provided is copyrighted © 2007 Linotype GmbH, www.linotype.com. All rights reserved. This software is the property of Linotype GmbH, and may not be reproduced, used, displayed, modified, disclosed or transferred without the express written approval of Linotype GmbH.  The digitally encoded machine readable software for producing the Typefaces licensed to you is copyrighted (c) 1989, 1995 Adobe Systems. All Rights Reserved. This software is the property of Adobe Systems Incorporated and its licensors, and may not be reproduced, used, displayed, modified, disclosed or transferred without the express written approval of Adobe. Avenir is a trademark of Linotype GmbH and may be registered in certain jurisdictions. This typeface is original artwork of Adrian Frutiger. The design may be protected in certain jurisdictions.]]></copyright>
<trademark><![CDATA[Avenir is a trademark of Linotype GmbH and may be registered in certain jurisdictions.]]></trademark>
<licensee>
<name></name>
</licensee>
</metadata>
<defs >
<font horiz-adv-x="550" id="731dd4d3-64da-427d-ba61-01575b3cf3f7">
<font-face font-family="" panose-1="2 11 7 3 2 2 3 2 2 4" ascent="950" descent="-250" units-per-em="1000" alphabetic="0">
</font-face>
<missing-glyph horiz-adv-x="0" />

<glyph unicode="&#xA;" />
<glyph unicode="&#xD;" horiz-adv-x="0" />
<glyph unicode=" " horiz-adv-x="296" />
<glyph unicode="!" horiz-adv-x="296" d="M208 222H88V708H208V222ZM68 70Q68 102 91 125T148 148Q180 148 204 126T228 72Q228 40 205 17T148 -6Q132 -6 118 0T92 16T75 40T68 70Z"  />
<glyph unicode="&quot;" horiz-adv-x="519" d="M120 708H222V444H120V708ZM297 708H399V444H297V708Z"  />
<glyph unicode="#" horiz-adv-x="592" d="M137 209H47V293H148L166 415H76V499H177L207 708H295L265 499H368L398 708H485L455 499H545V415H443L426 293H516V209H416L385 0H298L328 209H224L194 0H107L137 209ZM253 415L236 293H339L356 415H253Z"  />
<glyph unicode="$" horiz-adv-x="592" d="M318 720H327Q378 720 431 703T523 651L440 558Q417 583 385 597T318 612V412L322 411Q364 400 404 386T476 350T527 293T547 208Q547 158 529 120T480 54T408 10T318 -11V-83H264V-12Q198 -13 138 8T31 77L122 170Q146 136 184 118T264 96V307L259 308Q217 320 179 334T112 372T65 429T48 513Q48 558 66 594T114 656T183 699T264 719V786H318V720ZM264 610Q229 604 202 581T174 519Q174 496 181 482T201 458T229 442T264 427V610ZM318 96Q339 100 357 108T390 129T412 159T421 199Q421 221 412 236T387 261T354 278T318 291V96Z"  />
<glyph unicode="%" horiz-adv-x="907" d="M505 174Q505 213 519 246T559 305T618 345T691 360Q730 360 763 346T822 306T862 247T877 174Q877 135 863 102T823 43T764 3T691 -12Q652 -12 619 2T560 42T520 101T505 174ZM781 174Q781 212 755 238T691 264Q653 264 627 238T601 174Q601 136 627 110T691 84Q729 84 755 110T781 174ZM30 534Q30 573 44 606T84 665T143 705T216 720Q255 720 288 706T347 666T387 607T402 534Q402 495 388 462T348 403T289 363T216 348Q177 348 144 362T85 402T45 461T30 534ZM306 534Q306 572 280 598T216 624Q178 624 152 598T126 534Q126 496 152 470T216 444Q254 444 280 470T306 534ZM621 740L704 702L288 -32L205 6L621 740Z"  />
<glyph unicode="&amp;" horiz-adv-x="741" d="M574 167L727 0H572L497 81Q454 30 405 6T288 -18Q241 -18 198 -5T121 35T68 100T48 190Q48 226 60 256T92 312T141 357T201 389Q184 408 170 426T144 463T127 504T120 552Q120 595 136 628T181 682T246 715T323 726Q363 726 399 716T462 686T506 633T523 558Q523 525 511 498T479 448T434 407T382 375L496 252L575 372H716L574 167ZM325 618Q290 618 265 599T240 547Q240 533 246 520T262 493T283 467T307 444Q322 452 339 462T370 486T394 516T403 552Q403 581 380 599T325 618ZM277 318Q259 307 242 296T211 270T189 238T180 197Q180 174 189 154T213 120T249 98T292 90Q333 90 364 112T422 160L277 318Z"  />
<glyph unicode="&apos;" horiz-adv-x="296" d="M97 708H199V444H97V708Z"  />
<glyph unicode="(" horiz-adv-x="296" d="M279 680L278 676Q218 592 184 492T150 288Q150 184 184 84T278 -101L194 -156Q125 -61 87 52T48 288Q48 410 86 523T194 732L279 680Z"  />
<glyph unicode=")" horiz-adv-x="296" d="M17 -104L18 -100Q78 -16 112 84T146 288Q146 392 112 492T18 676L102 732Q171 637 209 524T248 288Q248 166 210 53T102 -156L17 -104Z"  />
<glyph unicode="*" horiz-adv-x="463" d="M274 566L409 610L435 530L299 486L385 369L316 319L230 437L146 322L79 373L165 486L28 533L54 613L190 566V708H274V566Z"  />
<glyph unicode="+" horiz-adv-x="666" d="M282 354V574H384V354H604V252H384V32H282V252H62V354H282Z"  />
<glyph unicode="&#x2c;" horiz-adv-x="296" d="M108 138H230L145 -126H38L108 138Z"  />
<glyph unicode="-" horiz-adv-x="315" d="M281 195H34V297H281V195Z"  />
<glyph unicode="." horiz-adv-x="296" d="M68 70Q68 102 91 125T148 148Q180 148 204 126T228 72Q228 40 205 17T148 -6Q132 -6 118 0T92 16T75 40T68 70Z"  />
<glyph unicode="/" horiz-adv-x="389" d="M74 -48L-9 -18L303 758L386 726L74 -48Z"  />
<glyph unicode="0" horiz-adv-x="592" d="M40 354Q40 438 53 497T89 597T138 662T194 699T249 716T296 720Q316 720 342 716T397 700T453 663T503 598T538 498T552 354Q552 270 539 211T503 111T454 46T398 9T343 -8T296 -12Q276 -12 250 -8T195 8T139 45T89 110T54 210T40 354ZM160 354Q160 321 164 278T183 195T224 129T296 102Q341 102 368 129T409 195T427 277T432 354Q432 387 428 430T409 513T368 579T296 606Q251 606 224 579T183 513T165 431T160 354Z"  />
<glyph unicode="1" horiz-adv-x="592" d="M268 570L135 447L65 530L279 708H388V0H268V570Z"  />
<glyph unicode="2" horiz-adv-x="592" d="M59 127L334 393Q346 405 359 418T382 447T400 478T407 513Q407 535 399 552T376 581T344 599T304 606Q259 606 230 580T195 510L69 520Q73 569 92 606T143 669T215 707T304 720Q352 720 393 708T466 671T515 608T533 519Q533 452 503 404T424 311L205 108H533V0H59V127Z"  />
<glyph unicode="3" horiz-adv-x="592" d="M222 423H253Q279 423 303 426T347 439T379 468T391 519Q391 560 363 586T290 612Q254 612 226 592T184 534L57 568Q69 607 91 636T143 683T209 711T284 720Q330 720 371 708T443 673T492 614T511 531Q511 474 479 430T390 371V369Q458 359 493 311T528 197Q528 146 509 107T456 42T380 2T289 -12Q245 -12 206 -3T136 27T81 78T46 154L174 188Q185 144 213 120T289 96Q313 96 334 104T372 126T398 161T408 207Q408 241 394 262T357 295T306 311T251 315H222V423Z"  />
<glyph unicode="4" horiz-adv-x="592" d="M335 144H34V263L319 708H455V252H558V144H455V0H335V144ZM335 538H333L156 252H335V538Z"  />
<glyph unicode="5" horiz-adv-x="592" d="M505 600H220L217 459Q231 464 252 466T293 468Q345 468 388 452T463 404T511 330T529 233Q529 176 510 131T456 54T374 5T273 -12Q188 -12 129 28T44 150L170 184Q182 146 211 124T286 102Q313 102 335 111T374 136T400 175T409 223Q409 260 396 286T359 328T306 352T243 360Q204 360 166 351T95 326L102 708H505V600Z"  />
<glyph unicode="6" horiz-adv-x="592" d="M437 708L267 446L269 444Q280 450 298 453T335 456Q382 456 421 438T488 389T532 317T548 230Q548 175 529 130T477 54T397 5T296 -12Q240 -12 194 4T115 52T63 128T44 229Q44 285 62 330T110 423L291 708H437ZM170 231Q170 204 180 181T207 140T248 112T299 102Q326 102 349 112T390 139T418 180T428 231Q428 258 418 281T391 322T350 350T299 360Q272 360 249 350T208 323T180 282T170 231Z"  />
<glyph unicode="7" horiz-adv-x="592" d="M42 708H523V598L240 0H99L388 594H42V708Z"  />
<glyph unicode="8" horiz-adv-x="592" d="M296 720Q341 720 380 708T449 672T496 614T513 534Q513 477 487 434T406 375V373Q431 368 454 353T496 315T524 263T535 201Q535 148 516 109T465 42T389 2T296 -12Q246 -12 203 1T127 42T76 108T57 201Q57 234 67 263T96 314T137 352T186 373V375Q132 391 106 434T79 534Q79 579 96 613T142 671T211 707T296 720ZM296 618Q250 618 225 590T199 522Q199 480 225 452T296 423Q316 423 333 430T364 451T385 483T393 522Q393 562 366 590T296 618ZM296 327Q272 327 250 319T212 296T187 261T177 216Q177 165 210 134T296 102Q348 102 381 133T415 216Q415 240 406 260T380 296T342 319T296 327Z"  />
<glyph unicode="9" horiz-adv-x="592" d="M155 0L325 262L323 264Q312 258 294 255T257 252Q210 252 171 270T104 319T60 391T44 478Q44 533 63 578T115 654T195 703T296 720Q351 720 397 704T477 656T529 580T548 479Q548 423 530 378T482 285L301 0H155ZM422 477Q422 504 412 527T385 568T344 596T293 606Q266 606 243 596T202 569T174 528T164 477Q164 450 174 427T201 386T242 358T293 348Q320 348 343 358T384 385T412 426T422 477Z"  />
<glyph unicode=":" horiz-adv-x="296" d="M68 70Q68 102 91 125T148 148Q180 148 204 126T228 72Q228 40 205 17T148 -6Q132 -6 118 0T92 16T75 40T68 70ZM68 409Q68 441 91 464T148 487Q180 487 204 465T228 411Q228 379 205 356T148 333Q132 333 118 339T92 355T75 379T68 409Z"  />
<glyph unicode=";" horiz-adv-x="296" d="M108 138H230L145 -126H38L108 138ZM68 409Q68 441 91 464T148 487Q180 487 204 465T228 411Q228 379 205 356T148 333Q132 333 118 339T92 355T75 379T68 409Z"  />
<glyph unicode="&lt;" horiz-adv-x="666" d="M80 267V339L586 564V454L248 303L586 152V42L80 267Z"  />
<glyph unicode="=" horiz-adv-x="666" d="M604 444V342H62V444H604ZM604 264V162H62V264H604Z"  />
<glyph unicode="&gt;" horiz-adv-x="666" d="M586 339V267L80 42V152L418 303L80 454V564L586 339Z"  />
<glyph unicode="?" horiz-adv-x="519" d="M210 209V264Q210 286 212 301T221 329T238 353T264 381L341 459Q366 484 366 524Q366 563 341 587T276 612Q234 612 207 584T176 514L48 524Q54 572 73 609T122 673T193 712T281 726Q326 726 364 713T431 676T476 615T492 531Q492 498 483 473T459 427T425 387T383 347Q369 334 359 324T343 304T333 280T330 247V209H210ZM190 70Q190 102 213 125T270 148Q302 148 326 126T350 72Q350 40 327 17T270 -6Q254 -6 240 0T214 16T197 40T190 70Z"  />
<glyph unicode="@" horiz-adv-x="800" d="M401 456Q376 456 356 447T323 421T302 382T295 335Q295 327 296 312T305 281T330 255T378 243Q406 243 425 254T455 282T470 321T475 364Q475 404 457 430T401 456ZM727 133Q673 59 593 21T420 -18Q340 -18 270 9T146 86T63 203T32 353Q32 433 62 501T144 619T265 697T414 726Q480 726 543 705T657 641T737 538T768 397Q768 344 756 305T724 239T680 195T631 169T584 157T546 153Q504 153 486 170T467 207H465Q445 187 415 170T337 153Q305 153 279 165T233 200T204 253T193 321Q193 365 207 405T246 477T309 527T393 546Q433 546 459 533T501 489H503L511 534H605L568 337Q565 323 562 309T559 280Q559 262 564 253T586 243Q602 243 617 251T645 278T664 325T672 392Q672 452 653 497T599 574T516 620T411 636Q349 636 298 615T211 556T154 466T134 353Q134 287 156 235T217 147T311 92T428 72Q485 72 532 88T617 133H727Z"  />
<glyph unicode="A" horiz-adv-x="722" d="M308 708H417L722 0H578L512 162H205L141 0H0L308 708ZM468 270L359 558L248 270H468Z"  />
<glyph unicode="B" horiz-adv-x="648" d="M79 708H355Q395 708 434 699T503 668T553 612T572 530Q572 470 538 431T449 375V373Q482 369 510 355T559 318T590 266T602 202Q602 144 579 106T519 44T433 10T334 0H79V708ZM205 420H320Q383 420 414 444T446 509Q446 555 414 577T309 600H205V420ZM205 108H321Q345 108 372 111T423 125T461 156T476 212Q476 268 440 290T326 312H205V108Z"  />
<glyph unicode="C" horiz-adv-x="685" d="M565 542Q526 584 490 598T416 612Q361 612 317 593T240 539T191 458T173 359Q173 302 190 254T240 171T316 116T416 96Q459 96 499 116T575 182L679 108Q631 42 562 12T415 -18Q333 -18 265 8T147 83T69 200T41 351Q41 436 69 505T146 624T264 699T415 726Q487 726 548 701T663 614L565 542Z"  />
<glyph unicode="D" horiz-adv-x="759" d="M79 708H358Q428 708 493 687T608 621T688 511T718 354Q718 263 684 197T595 87T474 22T343 0H79V708ZM299 114Q358 114 410 127T502 169T563 243T586 354Q586 418 566 464T511 538T427 580T320 594H205V114H299Z"  />
<glyph unicode="E" horiz-adv-x="611" d="M79 708H548V594H205V420H530V306H205V114H566V0H79V708Z"  />
<glyph unicode="F" horiz-adv-x="574" d="M79 708H536V594H205V408H517V294H205V0H79V708Z"  />
<glyph unicode="G" horiz-adv-x="778" d="M708 52Q577 -18 415 -18Q333 -18 265 8T147 83T69 200T41 351Q41 436 69 505T146 624T264 699T415 726Q496 726 567 707T694 637L601 543Q567 576 519 594T416 612Q361 612 317 593T240 539T191 458T173 359Q173 302 190 254T240 171T316 116T416 96Q464 96 506 105T582 133V300H437V414H708V52Z"  />
<glyph unicode="H" horiz-adv-x="741" d="M79 708H205V426H536V708H662V0H536V312H205V0H79V708Z"  />
<glyph unicode="I" horiz-adv-x="278" d="M76 708H202V0H76V708Z"  />
<glyph unicode="J" horiz-adv-x="500" d="M426 196Q426 154 413 115T373 47T306 0T213 -18Q129 -18 76 21T5 145L123 173Q129 138 151 117T207 96Q261 96 280 132T300 233V708H426V196Z"  />
<glyph unicode="K" horiz-adv-x="685" d="M79 708H205V408H211L504 708H674L343 381L696 0H519L212 348H205V0H79V708Z"  />
<glyph unicode="L" horiz-adv-x="519" d="M79 708H205V114H506V0H79V708Z"  />
<glyph unicode="M" horiz-adv-x="926" d="M82 708H274L463 212L654 708H844V0H724V588H722L507 0H419L204 588H202V0H82V708Z"  />
<glyph unicode="N" horiz-adv-x="796" d="M79 708H246L589 182H591V708H717V0H557L207 543H205V0H79V708Z"  />
<glyph unicode="O" horiz-adv-x="833" d="M41 351Q41 436 69 505T146 624T264 699T415 726Q498 727 567 702T686 627T764 509T792 355Q792 272 764 204T686 87T567 11T415 -18Q333 -18 265 8T147 83T69 200T41 351ZM173 359Q173 302 190 254T240 171T316 116T416 96Q471 96 516 116T593 171T642 254T660 359Q660 412 643 458T593 538T516 592T416 612Q361 612 317 593T240 539T191 458T173 359Z"  />
<glyph unicode="P" horiz-adv-x="611" d="M79 708H317Q368 708 415 698T499 665T556 602T578 503Q578 436 555 395T493 332T403 301T295 293H205V0H79V708ZM281 401Q308 401 337 403T390 415T430 445T446 501Q446 534 432 553T396 583T347 597T295 600H205V401H281Z"  />
<glyph unicode="Q" horiz-adv-x="852" d="M839 0H427Q344 0 274 25T152 98T71 214T41 369Q41 447 70 512T151 625T269 699T413 726Q489 726 556 700T675 626T755 513T785 369Q785 313 772 271T736 196T688 141T636 104V102H839V0ZM410 612Q359 612 316 594T241 542T191 464T173 366Q173 312 191 266T241 186T316 133T412 114Q464 114 508 133T585 185T635 265T653 366Q653 419 635 464T585 542T509 593T410 612Z"  />
<glyph unicode="R" horiz-adv-x="630" d="M79 708H325Q376 708 423 699T508 666T567 604T589 505Q589 428 547 376T425 313L613 0H461L297 300H205V0H79V708ZM303 408Q330 408 357 410T406 422T443 451T457 506Q457 537 444 556T410 584T364 597T314 600H205V408H303Z"  />
<glyph unicode="S" horiz-adv-x="574" d="M426 556Q406 585 373 598T302 612Q280 612 260 607T223 591T196 563T186 521Q186 485 211 466T273 433T354 406T435 370T497 309T522 208Q522 151 501 109T445 38T362 -4T263 -18Q197 -18 136 4T31 78L126 170Q149 135 186 116T266 96Q288 96 310 102T350 120T379 150T390 193Q390 232 365 253T303 288T222 316T141 351T79 411T54 512Q54 567 76 607T135 673T219 713T315 726Q371 726 423 709T518 653L426 556Z"  />
<glyph unicode="T" horiz-adv-x="574" d="M224 594H7V708H567V594H350V0H224V594Z"  />
<glyph unicode="U" horiz-adv-x="722" d="M646 260Q646 196 624 145T564 57T474 2T361 -18Q300 -18 248 1T158 57T98 144T76 260V708H202V264Q202 238 210 210T236 157T285 118T361 102Q406 102 436 117T485 157T512 209T520 264V708H646V260Z"  />
<glyph unicode="V" horiz-adv-x="667" d="M-3 708H142L335 173L534 708H670L384 0H275L-3 708Z"  />
<glyph unicode="W" horiz-adv-x="981" d="M0 708H138L271 198H273L432 708H556L712 198H714L853 708H981L775 0H655L491 539H489L325 0H209L0 708Z"  />
<glyph unicode="X" horiz-adv-x="685" d="M252 370L16 708H175L342 446L507 708H660L428 370L685 0H525L338 299L152 0H0L252 370Z"  />
<glyph unicode="Y" horiz-adv-x="630" d="M252 303L-14 708H144L318 426L494 708H644L378 303V0H252V303Z"  />
<glyph unicode="Z" horiz-adv-x="611" d="M35 114L413 594H41V708H570V594L189 114H576V0H35V114Z"  />
<glyph unicode="[" horiz-adv-x="278" d="M258 654H168V-78H258V-156H66V732H258V654Z"  />
<glyph unicode="\" horiz-adv-x="389" d="M86 758L398 -18L315 -48L3 726L86 758Z"  />
<glyph unicode="]" horiz-adv-x="278" d="M20 -78H110V654H20V732H212V-156H20V-78Z"  />
<glyph unicode="^" horiz-adv-x="666" d="M69 343L292 708H374L597 343H479L332 582L187 343H69Z"  />
<glyph unicode="_" horiz-adv-x="500" d="M0 -125V-75H500V-125H0Z"  />
<glyph unicode="`" horiz-adv-x="260" d="M177 564H83L-58 708H78L177 564Z"  />
<glyph unicode="a" horiz-adv-x="537" d="M368 66H365Q339 25 299 7T211 -12Q178 -12 147 -3T91 24T51 69T36 132Q36 171 50 198T87 244T142 274T206 290T274 297T338 299H368V312Q368 357 337 379T258 402Q220 402 187 389T130 352L67 415Q107 456 160 474T271 492Q322 492 357 481T415 451T450 410T468 362T475 316T476 276V0H368V66ZM361 215H336Q311 215 280 213T222 204T175 182T156 141Q156 124 163 113T183 93T210 82T240 78Q302 78 331 107T361 188V215Z"  />
<glyph unicode="b" horiz-adv-x="630" d="M68 756H188V419H191Q200 431 214 443T248 467T294 485T354 492Q405 492 448 473T521 419T569 339T586 240Q586 187 570 141T523 61T448 8T349 -12Q298 -12 254 8T184 72H182V0H68V756ZM466 240Q466 268 457 294T429 340T384 372T325 384Q292 384 266 372T222 340T194 294T184 240Q184 212 193 186T221 140T266 108T325 96Q358 96 384 108T428 140T456 186T466 240Z"  />
<glyph unicode="c" horiz-adv-x="482" d="M396 336Q375 358 352 371T305 384Q272 384 246 372T202 340T174 294T164 240Q164 212 173 186T201 140T246 108T305 96Q333 96 357 107T398 141L478 55Q460 37 437 24T389 3T343 -8T305 -12Q251 -12 203 6T120 57T65 136T44 240Q44 297 64 343T120 423T203 474T305 492Q351 492 397 475T479 419L396 336Z"  />
<glyph unicode="d" horiz-adv-x="630" d="M448 72H446Q420 28 376 8T281 -12Q225 -12 182 7T107 61T60 141T44 240Q44 293 61 339T108 419T182 472T276 492Q310 492 336 485T382 467T416 444T439 419H442V756H562V0H448V72ZM164 240Q164 212 173 186T201 140T246 108T305 96Q338 96 364 108T408 140T436 186T446 240Q446 268 437 294T409 340T364 372T305 384Q272 384 246 372T202 340T174 294T164 240Z"  />
<glyph unicode="e" horiz-adv-x="574" d="M164 198Q170 144 206 114T293 84Q338 84 368 102T422 149L508 84Q466 32 414 10T305 -12Q251 -12 203 6T120 57T65 136T44 240Q44 297 64 343T120 423T203 474T305 492Q355 492 396 475T467 424T513 343T530 231V198H164ZM410 288Q409 341 377 371T288 402Q234 402 203 371T164 288H410Z"  />
<glyph unicode="f" horiz-adv-x="352" d="M111 378H12V480H111V548Q111 598 118 638T144 708T199 752T290 768Q331 768 366 761L358 659Q345 662 333 664T308 666Q283 666 268 658T245 637T234 605T231 567V480H342V378H231V0H111V378Z"  />
<glyph unicode="g" horiz-adv-x="630" d="M562 480V43Q562 -22 546 -74T497 -163T412 -220T291 -240Q224 -240 164 -223T53 -161L125 -63Q161 -96 200 -114T290 -132Q333 -132 362 -120T409 -87T434 -37T442 29V64H440Q414 29 371 12T283 -6Q229 -6 185 13T110 66T61 144T44 240Q44 293 60 339T107 419T181 472T281 492Q332 492 376 472T446 408H448V480H562ZM306 384Q274 384 248 374T204 345T175 300T164 241Q164 212 174 187T204 143T249 113T305 102Q338 102 364 113T409 142T438 187T448 243Q448 306 410 345T306 384Z"  />
<glyph unicode="h" horiz-adv-x="574" d="M188 413H190Q204 443 239 467T331 492Q379 492 412 476T467 434T497 374T506 303V0H386V243Q386 263 384 287T374 333T347 369T298 384Q268 384 248 374T214 347T194 308T188 262V0H68V756H188V413Z"  />
<glyph unicode="i" horiz-adv-x="260" d="M70 480H190V0H70V480ZM53 643Q53 672 74 693T129 715Q162 715 184 695T207 643Q207 612 185 592T129 571Q96 571 75 592T53 643Z"  />
<glyph unicode="j" horiz-adv-x="260" d="M190 480V-29Q190 -74 184 -112T161 -179T111 -224T28 -240Q11 -240 -5 -238T-37 -231L-28 -127Q-18 -129 -9 -130T10 -132Q32 -132 44 -123T62 -98T69 -65T70 -30V480H190ZM53 643Q53 672 74 693T129 715Q162 715 184 695T207 643Q207 612 185 592T129 571Q96 571 75 592T53 643Z"  />
<glyph unicode="k" horiz-adv-x="537" d="M68 756H188V281L373 480H527L321 262L540 0H381L190 245H188V0H68V756Z"  />
<glyph unicode="l" horiz-adv-x="260" d="M70 756H190V0H70V756Z"  />
<glyph unicode="m" horiz-adv-x="870" d="M63 480H177V405H179Q195 439 230 465T326 492Q439 492 476 403Q502 449 541 470T634 492Q682 492 715 476T768 432T798 367T807 286V0H687V272Q687 294 683 314T669 350T642 375T598 384Q570 384 551 374T519 346T501 306T495 260V0H375V286Q375 331 356 357T293 384Q263 384 243 374T209 347T189 308T183 262V0H63V480Z"  />
<glyph unicode="n" horiz-adv-x="574" d="M68 480H182V403H184Q201 439 236 465T331 492Q379 492 412 476T467 434T497 374T506 303V0H386V243Q386 263 384 287T374 333T347 369T298 384Q268 384 248 374T214 347T194 308T188 262V0H68V480Z"  />
<glyph unicode="o" horiz-adv-x="610" d="M44 240Q44 297 64 343T120 423T203 474T305 492Q359 492 407 474T490 423T545 344T566 240Q566 183 546 137T490 57T407 6T305 -12Q251 -12 203 6T120 57T65 136T44 240ZM164 240Q164 212 173 186T201 140T246 108T305 96Q338 96 364 108T408 140T436 186T446 240Q446 268 437 294T409 340T364 372T305 384Q272 384 246 372T202 340T174 294T164 240Z"  />
<glyph unicode="p" horiz-adv-x="630" d="M68 480H182V408H184Q210 452 254 472T349 492Q404 492 448 473T523 419T570 339T586 240Q586 187 569 141T522 61T448 8T354 -12Q320 -12 294 -5T248 13T214 36T191 61H188V-228H68V480ZM466 240Q466 268 457 294T429 340T384 372T325 384Q292 384 266 372T222 340T194 294T184 240Q184 212 193 186T221 140T266 108T325 96Q358 96 384 108T428 140T456 186T466 240Z"  />
<glyph unicode="q" horiz-adv-x="630" d="M562 -228H442V61H439Q430 49 416 37T382 13T336 -5T276 -12Q225 -12 182 7T109 61T61 141T44 240Q44 293 60 339T107 419T181 472T281 492Q332 492 376 472T446 408H448V480H562V-228ZM164 240Q164 212 173 186T201 140T246 108T305 96Q338 96 364 108T408 140T436 186T446 240Q446 268 437 294T409 340T364 372T305 384Q272 384 246 372T202 340T174 294T164 240Z"  />
<glyph unicode="r" horiz-adv-x="389" d="M68 480H188V404H190Q210 446 247 469T332 492Q343 492 353 490T375 485V369Q360 373 346 375T317 378Q275 378 250 363T211 327T193 287T188 257V0H68V480Z"  />
<glyph unicode="s" horiz-adv-x="444" d="M324 347Q289 396 230 396Q206 396 183 384T160 345Q160 323 179 313T227 296T289 282T352 259T400 216T419 142Q419 99 401 70T353 22T286 -4T212 -12Q156 -12 109 4T25 62L105 137Q128 111 154 95T219 78Q232 78 246 81T272 91T291 108T299 133Q299 158 280 170T232 189T170 203T107 224T59 265T40 337Q40 377 56 406T100 455T162 483T233 492Q281 492 328 476T404 419L324 347Z"  />
<glyph unicode="t" horiz-adv-x="389" d="M12 378V480H111V619H231V480H363V378H231V168Q231 132 244 111T298 90Q314 90 333 93T363 105V4Q344 -5 317 -8T268 -12Q220 -12 190 -2T142 30T118 84T111 158V378H12Z"  />
<glyph unicode="u" horiz-adv-x="574" d="M506 0H392V77H390Q373 41 338 15T243 -12Q195 -12 162 3T107 45T77 106T68 177V480H188V237Q188 217 190 193T200 147T226 111T276 96Q306 96 326 106T360 133T380 172T386 218V480H506V0Z"  />
<glyph unicode="v" horiz-adv-x="519" d="M3 480H134L262 144H264L393 480H516L327 0H199L3 480Z"  />
<glyph unicode="w" horiz-adv-x="796" d="M3 480H133L237 144H239L336 480H466L570 144H572L672 480H793L630 0H511L397 328H395L294 0H170L3 480Z"  />
<glyph unicode="x" horiz-adv-x="537" d="M192 258L26 480H172L268 336L372 480H509L345 258L538 0H392L267 172L141 0H-1L192 258Z"  />
<glyph unicode="y" horiz-adv-x="519" d="M3 480H135L269 147H271L391 480H516L289 -103Q276 -137 261 -162T224 -205T175 -231T106 -240Q59 -240 14 -228L29 -120Q43 -125 58 -128T90 -132Q112 -132 127 -128T152 -116T170 -94T185 -61L208 -4L3 480Z"  />
<glyph unicode="z" horiz-adv-x="482" d="M34 111L291 382V384H46V480H436V371L176 96H448V0H34V111Z"  />
<glyph unicode="{" horiz-adv-x="278" d="M0 332Q10 332 26 335T57 345T83 367T94 402V600Q94 634 108 658T142 699T184 724T222 732H313V648H258Q237 648 225 641T206 624T198 601T196 578V390Q196 361 185 342T159 312T127 295T98 289V287Q110 286 126 282T158 267T185 236T196 180V-2Q196 -13 197 -25T205 -47T224 -65T258 -72H313V-156H222Q206 -156 184 -148T142 -124T108 -83T94 -24V167Q94 191 83 206T57 229T26 241T0 244V332Z"  />
<glyph unicode="|" horiz-adv-x="222" d="M162 750V-250H60V750H162Z"  />
<glyph unicode="}" horiz-adv-x="278" d="M278 244Q267 244 251 241T220 231T195 209T184 174V-24Q184 -58 170 -82T136 -123T94 -148T56 -156H-35V-72H20Q41 -72 53 -65T72 -48T80 -25T82 -2V186Q82 215 93 234T119 264T151 280T180 287V289Q168 290 152 294T120 309T93 340T82 396V578Q82 589 81 601T73 623T54 641T20 648H-35V732H56Q72 732 94 724T136 700T170 659T184 600V409Q184 385 194 370T220 347T251 335T278 332V244Z"  />
<glyph unicode="~" horiz-adv-x="666" d="M565 301Q554 285 542 270T515 242T482 223T440 215Q412 215 388 224T338 248Q314 262 286 272T223 283Q206 283 193 277T169 261T151 239T137 215L101 299Q109 315 120 330T146 358T180 377T223 385Q252 385 281 376T339 353Q367 341 393 329T440 317Q455 317 468 323T491 339T511 361T529 385L565 301Z"  />
<glyph unicode="&#xA0;" horiz-adv-x="296" />
<glyph unicode="&#xA1;" horiz-adv-x="296" d="M88 265H208V-222H88V265ZM228 416Q228 384 205 361T148 338Q116 338 92 360T68 414Q68 446 91 469T148 492Q164 492 178 486T204 470T221 446T228 416Z"  />
<glyph unicode="&#xA2;" horiz-adv-x="592" d="M354 492Q402 490 447 475T524 423L447 345Q428 365 405 376T354 390V90Q382 90 407 103T451 136L524 57Q492 22 447 6T354 -12V-84H300V-12Q249 -8 208 13T138 68T94 146T78 241Q78 346 137 412T300 492V559H354V492ZM300 389Q272 383 252 370T219 337T199 292T192 240Q192 187 219 146T300 90V389Z"  />
<glyph unicode="&#xA3;" horiz-adv-x="592" d="M66 96H168V315H66V399H168V499Q168 536 181 575T222 646T294 699T400 720Q454 720 504 705T591 656L510 569Q488 589 462 600T404 612Q376 612 355 602T318 574T296 535T288 489V399H450V315H288V96H541V0H66V96Z"  />
<glyph unicode="&#xA4;" horiz-adv-x="592" d="M36 155L85 204Q62 236 49 274T36 355Q36 397 49 435T85 506L36 555L96 614L145 566Q177 589 215 601T296 614Q339 614 377 602T447 566L496 614L556 555L507 506Q556 439 556 355Q556 313 543 275T507 204L556 155L496 95L447 144Q415 121 377 108T296 95Q212 95 145 144L96 95L36 155ZM150 355Q150 286 189 245T296 203Q363 203 402 244T442 355Q442 424 403 465T296 506Q229 506 190 465T150 355Z"  />
<glyph unicode="&#xA5;" horiz-adv-x="592" d="M236 177H66V255H236V303L217 337H66V415H174L12 708H147L302 414L451 708H580L418 415H526V337H375L356 303V255H526V177H356V0H236V177Z"  />
<glyph unicode="&#xA6;" horiz-adv-x="222" d="M162 675V325H60V675H162ZM162 175V-175H60V175H162Z"  />
<glyph unicode="&#xA7;" horiz-adv-x="593" d="M398 566Q387 596 361 613T303 630Q273 630 248 614T222 564Q222 536 244 518T299 484T372 452T444 414T500 359T522 280Q522 238 498 204T437 152Q466 130 482 100T498 33Q498 -12 478 -45T426 -101T354 -133T275 -144Q239 -144 206 -138T144 -117T92 -80T53 -21L160 31Q171 -7 204 -24T274 -42Q289 -42 305 -39T335 -28T357 -8T366 23Q366 51 344 69T289 102T216 132T144 169T88 221T66 299Q66 354 92 389T162 447Q131 467 114 495T96 561Q96 603 114 634T161 685T226 716T300 726Q329 726 359 721T416 704T466 673T503 625L398 566ZM362 194Q380 204 394 224T408 264Q408 283 401 296T382 319T356 336T327 352L238 394Q214 383 197 368T180 324Q180 306 188 293T208 270T236 253T265 239L362 194Z"  />
<glyph unicode="&#xA8;" horiz-adv-x="260" d="M-50 636Q-50 665 -29 686T26 708Q59 708 81 688T104 636Q104 605 82 585T26 564Q-7 564 -28 585T-50 636ZM156 636Q156 665 177 686T232 708Q265 708 287 688T310 636Q310 605 288 585T232 564Q199 564 178 585T156 636Z"  />
<glyph unicode="&#xA9;" horiz-adv-x="800" d="M588 297Q583 259 567 231T526 183T473 153T410 143Q363 143 326 159T264 205T225 273T211 357Q211 403 224 441T261 508T323 551T408 567Q442 567 472 558T526 531T566 486T588 422H494Q487 457 465 470T416 483Q358 483 333 448T307 359Q307 331 314 307T334 265T368 237T414 227Q446 227 469 242T494 297H588ZM28 354Q28 431 57 498T137 616T255 696T400 726Q477 726 544 697T662 617T742 499T772 354Q772 277 743 210T663 92T545 12T400 -18Q323 -18 256 11T138 91T58 209T28 354ZM124 354Q124 294 145 242T204 150T291 89T400 66Q458 66 508 88T596 150T654 241T676 354Q676 414 655 466T596 558T509 619T400 642Q342 642 292 620T204 558T146 467T124 354Z"  />
<glyph unicode="&#xAA;" horiz-adv-x="349" d="M243 470H241Q226 445 197 435T138 425Q125 425 107 428T71 441T41 468T28 513Q28 548 48 568T97 598T161 610T226 613H243V621Q243 638 223 646T174 654Q149 654 129 646T91 622L48 675Q74 698 110 709T186 720Q258 720 289 691T321 600V431H243V470ZM211 553Q199 553 182 552T150 547T123 536T112 516Q112 501 127 493T162 485Q205 485 222 502T239 547V553H211Z"  />
<glyph unicode="&#xAB;" horiz-adv-x="519" d="M142 248L258 73L182 22L30 248L182 472L257 421L142 248ZM365 248L481 73L405 22L253 248L405 472L480 421L365 248Z"  />
<glyph unicode="&#xAC;" horiz-adv-x="666" d="M502 342H62V444H604V147H502V342Z"  />
<glyph unicode="&#xAD;" horiz-adv-x="296" />
<glyph unicode="&#xAE;" horiz-adv-x="800" d="M257 553H382Q416 553 447 548T503 531T543 496T558 438Q558 412 550 391T530 354T502 330T470 318L570 163H465L376 313H353V163H257V553ZM352 391H399Q408 391 419 392T439 397T455 409T462 433Q462 448 456 456T440 469T419 474T399 475H352V391ZM28 354Q28 431 57 498T137 616T255 696T400 726Q477 726 544 697T662 617T742 499T772 354Q772 277 743 210T663 92T545 12T400 -18Q323 -18 256 11T138 91T58 209T28 354ZM124 354Q124 294 145 242T204 150T291 89T400 66Q458 66 508 88T596 150T654 241T676 354Q676 414 655 466T596 558T509 619T400 642Q342 642 292 620T204 558T146 467T124 354Z"  />
<glyph unicode="&#xAF;" horiz-adv-x="260" d="M290 595H-30V673H290V595Z"  />
<glyph unicode="&#xB0;" horiz-adv-x="400" d="M40 560Q40 593 52 622T87 673T138 707T200 720Q233 720 262 708T313 673T347 622T360 560Q360 527 348 498T313 447T262 413T200 400Q167 400 138 412T87 447T53 498T40 560ZM118 560Q118 526 142 502T200 478Q234 478 258 502T282 560Q282 594 258 618T200 642Q166 642 142 618T118 560Z"  />
<glyph unicode="&#xB1;" horiz-adv-x="666" d="M283 574H385V431H604V329H385V186H283V329H62V431H283V574ZM62 134H604V32H62V134Z"  />
<glyph unicode="&#xB2;" horiz-adv-x="385" d="M31 384L211 536Q225 548 238 562T252 591Q252 612 236 621T196 630Q169 630 153 615T134 576L38 582Q43 654 87 687T201 720Q267 720 310 688T354 592Q354 527 296 483L156 375V373H354V289H31V384Z"  />
<glyph unicode="&#xB3;" horiz-adv-x="385" d="M146 552H178Q191 552 204 553T226 560T242 574T248 597Q248 613 234 621T195 630Q172 630 156 619T134 586L31 606Q38 638 54 659T91 694T139 714T195 720Q225 720 253 713T302 692T337 657T350 606Q350 571 330 546T271 513V511Q313 506 335 477T358 411Q358 379 345 355T309 315T256 291T192 283Q130 283 86 310T27 401L130 423Q135 400 150 387T192 373Q219 373 237 384T256 421Q256 438 249 447T229 461T201 467T169 468H146V552Z"  />
<glyph unicode="&#xB4;" horiz-adv-x="260" d="M182 708H318L177 564H83L182 708Z"  />
<glyph unicode="&#xB5;" horiz-adv-x="574" d="M188 480V237Q188 217 190 193T200 147T226 111T276 96Q306 96 326 106T360 133T380 172T386 218V480H506V0H392V77H390Q373 41 338 15T243 -12Q210 -12 188 -5V-228H68V480H188Z"  />
<glyph unicode="&#xB6;" horiz-adv-x="600" d="M246 338Q197 338 158 351T90 389T47 447T31 520Q31 570 48 606T95 664T169 697T264 708H533V-126H443V636H336V-126H246V338Z"  />
<glyph unicode="&#xB7;" horiz-adv-x="296" d="M68 291Q68 323 91 346T148 369Q180 369 204 347T228 293Q228 261 205 238T148 215Q132 215 118 221T92 237T75 261T68 291Z"  />
<glyph unicode="&#xB8;" horiz-adv-x="260" d="M177 -60Q199 -60 220 -62T259 -72T287 -97T298 -143Q298 -170 285 -189T251 -219T206 -235T159 -240Q103 -240 53 -212L75 -166Q113 -186 157 -186Q165 -186 175 -184T193 -178T208 -165T214 -144Q214 -124 197 -116T163 -108Q153 -108 144 -110T126 -115L99 -90L161 0H219L177 -60Z"  />
<glyph unicode="&#xB9;" horiz-adv-x="385" d="M179 606L95 531L40 597L190 714H281V289H179V606Z"  />
<glyph unicode="&#xBA;" horiz-adv-x="397" d="M197 425Q162 425 132 435T79 465T43 512T31 572Q31 605 44 632T79 678T132 709T197 720Q232 720 263 709T317 679T353 632T366 572Q366 539 353 512T317 466T263 436T197 425ZM197 497Q218 497 234 504T260 522T276 546T282 572Q282 585 277 598T261 623T234 641T197 648Q176 648 160 641T134 623T118 599T113 572Q113 559 118 546T133 522T160 504T197 497Z"  />
<glyph unicode="&#xBB;" horiz-adv-x="519" d="M377 246L261 421L337 472L489 246L337 22L262 73L377 246ZM154 246L38 421L114 472L266 246L114 22L39 73L154 246Z"  />
<glyph unicode="&#xBC;" horiz-adv-x="889" d="M168 606L84 531L29 597L179 714H270V289H168V606ZM705 85H507V163L695 425H807V169H860V85H807V0H705V85ZM705 303L704 305L609 169H705V303ZM600 740L683 702L267 -32L184 6L600 740Z"  />
<glyph unicode="&#xBD;" horiz-adv-x="889" d="M171 606L87 531L32 597L182 714H273V289H171V606ZM535 95L714 247Q728 259 741 273T755 302Q755 323 739 332T699 341Q672 341 656 326T637 287L541 293Q546 365 590 398T704 431Q770 431 813 399T857 303Q857 238 799 194L659 86V84H857V0H535V95ZM602 740L685 702L269 -32L186 6L602 740Z"  />
<glyph unicode="&#xBE;" horiz-adv-x="889" d="M715 335H713L595 159V157H715V335ZM142 552H174Q187 552 200 553T222 560T238 574T244 597Q244 613 230 621T191 630Q168 630 152 619T130 586L27 606Q34 638 50 659T87 694T135 714T191 720Q221 720 249 713T298 692T333 657T346 606Q346 571 326 546T267 513V511Q309 506 331 477T354 411Q354 379 341 355T305 315T252 291T188 283Q126 283 82 310T23 401L126 423Q131 400 146 387T188 373Q215 373 233 384T252 421Q252 438 245 447T225 461T197 467T165 468H142V552ZM712 85H514V163L702 425H814V169H866V85H814V0H712V85ZM627 740L710 702L294 -32L211 6L627 740Z"  />
<glyph unicode="&#xBF;" horiz-adv-x="519" d="M309 277V222Q309 199 307 184T298 157T281 133T255 105L178 27Q153 2 153 -38Q153 -77 178 -101T243 -126Q285 -126 312 -98T343 -28L471 -38Q465 -86 446 -123T397 -187T326 -226T238 -240Q193 -240 155 -228T88 -190T43 -129T27 -45Q27 -12 36 13T60 59T94 99T136 139Q150 152 160 162T176 182T186 206T189 239V277H309ZM329 416Q329 384 306 361T249 338Q217 338 193 360T169 414Q169 446 192 469T249 492Q265 492 279 486T305 470T322 446T329 416Z"  />
<glyph unicode="&#xC0;" horiz-adv-x="722" d="M308 708H417L722 0H578L512 162H205L141 0H0L308 708ZM468 270L359 558L248 270H468ZM408 756H314L173 900H309L408 756Z"  />
<glyph unicode="&#xC1;" horiz-adv-x="722" d="M308 708H417L722 0H578L512 162H205L141 0H0L308 708ZM468 270L359 558L248 270H468ZM413 900H549L408 756H314L413 900Z"  />
<glyph unicode="&#xC2;" horiz-adv-x="722" d="M308 708H417L722 0H578L512 162H205L141 0H0L308 708ZM468 270L359 558L248 270H468ZM429 756L360 846L291 756H179L294 900H429L543 756H429Z"  />
<glyph unicode="&#xC3;" horiz-adv-x="722" d="M308 708H417L722 0H578L512 162H205L141 0H0L308 708ZM468 270L359 558L248 270H468ZM177 760Q181 784 188 807T209 847T241 876T289 887Q309 887 329 881T369 869T404 856T433 850Q453 850 463 862T479 892H545Q541 868 534 845T513 805T481 776T433 765Q413 765 393 771T353 784T318 797T289 803Q269 803 259 790T243 760H177Z"  />
<glyph unicode="&#xC4;" horiz-adv-x="722" d="M308 708H417L722 0H578L512 162H205L141 0H0L308 708ZM468 270L359 558L248 270H468ZM181 828Q181 857 202 878T257 900Q290 900 312 880T335 828Q335 797 313 777T257 756Q224 756 203 777T181 828ZM387 828Q387 857 408 878T463 900Q496 900 518 880T541 828Q541 797 519 777T463 756Q430 756 409 777T387 828Z"  />
<glyph unicode="&#xC5;" horiz-adv-x="722" d="M308 708H417L722 0H578L512 162H205L141 0H0L308 708ZM468 270L359 558L248 270H468ZM466 837Q466 792 436 764T361 735Q316 735 286 763T256 836Q256 858 264 877T286 909T319 931T361 939Q406 939 436 911T466 837ZM418 837Q418 860 401 875T361 891Q338 891 321 876T304 837Q304 814 321 799T361 783Q384 783 401 798T418 837Z"  />
<glyph unicode="&#xC6;" horiz-adv-x="1000" d="M529 186H261L147 0H-6L447 708H943V594H655V420H925V306H655V114H955V0H529V186ZM529 294V594H514L327 294H529Z"  />
<glyph unicode="&#xC7;" horiz-adv-x="685" d="M565 542Q526 584 490 598T416 612Q361 612 317 593T240 539T191 458T173 359Q173 302 190 254T240 171T316 116T416 96Q459 96 499 116T575 182L679 108Q631 42 564 13T419 -18L390 -60Q412 -60 433 -62T472 -72T500 -97T511 -143Q511 -170 498 -189T464 -219T419 -235T372 -240Q316 -240 266 -212L288 -166Q326 -186 370 -186Q378 -186 388 -184T406 -178T421 -165T427 -144Q427 -124 410 -116T376 -108Q366 -108 357 -110T339 -115L312 -90L363 -15Q291 -7 232 23T131 100T65 211T41 351Q41 436 69 505T146 624T264 699T415 726Q487 726 548 701T663 614L565 542Z"  />
<glyph unicode="&#xC8;" horiz-adv-x="611" d="M79 708H548V594H205V420H530V306H205V114H566V0H79V708ZM353 756H259L118 900H254L353 756Z"  />
<glyph unicode="&#xC9;" horiz-adv-x="611" d="M79 708H548V594H205V420H530V306H205V114H566V0H79V708ZM358 900H494L353 756H259L358 900Z"  />
<glyph unicode="&#xCA;" horiz-adv-x="611" d="M79 708H548V594H205V420H530V306H205V114H566V0H79V708ZM374 756L305 846L236 756H124L239 900H374L488 756H374Z"  />
<glyph unicode="&#xCB;" horiz-adv-x="611" d="M79 708H548V594H205V420H530V306H205V114H566V0H79V708ZM126 828Q126 857 147 878T202 900Q235 900 257 880T280 828Q280 797 258 777T202 756Q169 756 148 777T126 828ZM332 828Q332 857 353 878T408 900Q441 900 463 880T486 828Q486 797 464 777T408 756Q375 756 354 777T332 828Z"  />
<glyph unicode="&#xCC;" horiz-adv-x="278" d="M76 708H202V0H76V708ZM186 756H92L-49 900H87L186 756Z"  />
<glyph unicode="&#xCD;" horiz-adv-x="278" d="M76 708H202V0H76V708ZM191 900H327L186 756H92L191 900Z"  />
<glyph unicode="&#xCE;" horiz-adv-x="278" d="M76 708H202V0H76V708ZM207 756L138 846L69 756H-43L72 900H207L321 756H207Z"  />
<glyph unicode="&#xCF;" horiz-adv-x="278" d="M76 708H202V0H76V708ZM-41 828Q-41 857 -20 878T35 900Q68 900 90 880T113 828Q113 797 91 777T35 756Q2 756 -19 777T-41 828ZM165 828Q165 857 186 878T241 900Q274 900 296 880T319 828Q319 797 297 777T241 756Q208 756 187 777T165 828Z"  />
<glyph unicode="&#xD0;" horiz-adv-x="759" d="M79 324H13V408H79V708H358Q428 708 493 687T608 621T688 511T718 354Q718 263 684 197T595 87T474 22T343 0H79V324ZM299 114Q358 114 410 127T502 169T563 243T586 354Q586 418 566 464T511 538T427 580T320 594H205V408H421V324H205V114H299Z"  />
<glyph unicode="&#xD1;" horiz-adv-x="796" d="M79 708H246L589 182H591V708H717V0H557L207 543H205V0H79V708ZM214 760Q218 784 225 807T246 847T278 876T326 887Q346 887 366 881T406 869T441 856T470 850Q490 850 500 862T516 892H582Q578 868 571 845T550 805T518 776T470 765Q450 765 430 771T390 784T355 797T326 803Q306 803 296 790T280 760H214Z"  />
<glyph unicode="&#xD2;" horiz-adv-x="833" d="M41 351Q41 436 69 505T146 624T264 699T415 726Q498 727 567 702T686 627T764 509T792 355Q792 272 764 204T686 87T567 11T415 -18Q333 -18 265 8T147 83T69 200T41 351ZM173 359Q173 302 190 254T240 171T316 116T416 96Q471 96 516 116T593 171T642 254T660 359Q660 412 643 458T593 538T516 592T416 612Q361 612 317 593T240 539T191 458T173 359ZM464 756H370L229 900H365L464 756Z"  />
<glyph unicode="&#xD3;" horiz-adv-x="833" d="M41 351Q41 436 69 505T146 624T264 699T415 726Q498 727 567 702T686 627T764 509T792 355Q792 272 764 204T686 87T567 11T415 -18Q333 -18 265 8T147 83T69 200T41 351ZM173 359Q173 302 190 254T240 171T316 116T416 96Q471 96 516 116T593 171T642 254T660 359Q660 412 643 458T593 538T516 592T416 612Q361 612 317 593T240 539T191 458T173 359ZM469 900H605L464 756H370L469 900Z"  />
<glyph unicode="&#xD4;" horiz-adv-x="833" d="M41 351Q41 436 69 505T146 624T264 699T415 726Q498 727 567 702T686 627T764 509T792 355Q792 272 764 204T686 87T567 11T415 -18Q333 -18 265 8T147 83T69 200T41 351ZM173 359Q173 302 190 254T240 171T316 116T416 96Q471 96 516 116T593 171T642 254T660 359Q660 412 643 458T593 538T516 592T416 612Q361 612 317 593T240 539T191 458T173 359ZM485 756L416 846L347 756H235L350 900H485L599 756H485Z"  />
<glyph unicode="&#xD5;" horiz-adv-x="833" d="M41 351Q41 436 69 505T146 624T264 699T415 726Q498 727 567 702T686 627T764 509T792 355Q792 272 764 204T686 87T567 11T415 -18Q333 -18 265 8T147 83T69 200T41 351ZM173 359Q173 302 190 254T240 171T316 116T416 96Q471 96 516 116T593 171T642 254T660 359Q660 412 643 458T593 538T516 592T416 612Q361 612 317 593T240 539T191 458T173 359ZM233 760Q237 784 244 807T265 847T297 876T345 887Q365 887 385 881T425 869T460 856T489 850Q509 850 519 862T535 892H601Q597 868 590 845T569 805T537 776T489 765Q469 765 449 771T409 784T374 797T345 803Q325 803 315 790T299 760H233Z"  />
<glyph unicode="&#xD6;" horiz-adv-x="833" d="M41 351Q41 436 69 505T146 624T264 699T415 726Q498 727 567 702T686 627T764 509T792 355Q792 272 764 204T686 87T567 11T415 -18Q333 -18 265 8T147 83T69 200T41 351ZM173 359Q173 302 190 254T240 171T316 116T416 96Q471 96 516 116T593 171T642 254T660 359Q660 412 643 458T593 538T516 592T416 612Q361 612 317 593T240 539T191 458T173 359ZM237 828Q237 857 258 878T313 900Q346 900 368 880T391 828Q391 797 369 777T313 756Q280 756 259 777T237 828ZM443 828Q443 857 464 878T519 900Q552 900 574 880T597 828Q597 797 575 777T519 756Q486 756 465 777T443 828Z"  />
<glyph unicode="&#xD7;" horiz-adv-x="666" d="M333 374L515 556L585 486L404 305L589 119L515 45L332 226L151 45L77 118L262 300L78 486L150 557L333 374Z"  />
<glyph unicode="&#xD8;" horiz-adv-x="833" d="M559 567Q497 612 416 612Q361 612 317 593T240 539T191 458T173 359Q173 312 185 271T219 197L559 567ZM264 148Q295 123 333 110T416 96Q471 96 516 116T593 171T642 254T660 359Q660 456 606 521L264 148ZM781 712L695 618Q742 569 767 503T792 355Q792 272 764 204T686 87T567 11T415 -18Q346 -18 286 1T179 56L94 -36L44 7L131 101Q88 149 65 212T41 351Q41 436 69 505T146 624T264 699T415 726Q482 728 539 711T645 661L732 755L781 712Z"  />
<glyph unicode="&#xD9;" horiz-adv-x="722" d="M646 260Q646 196 624 145T564 57T474 2T361 -18Q300 -18 248 1T158 57T98 144T76 260V708H202V264Q202 238 210 210T236 157T285 118T361 102Q406 102 436 117T485 157T512 209T520 264V708H646V260ZM408 756H314L173 900H309L408 756Z"  />
<glyph unicode="&#xDA;" horiz-adv-x="722" d="M646 260Q646 196 624 145T564 57T474 2T361 -18Q300 -18 248 1T158 57T98 144T76 260V708H202V264Q202 238 210 210T236 157T285 118T361 102Q406 102 436 117T485 157T512 209T520 264V708H646V260ZM413 900H549L408 756H314L413 900Z"  />
<glyph unicode="&#xDB;" horiz-adv-x="722" d="M646 260Q646 196 624 145T564 57T474 2T361 -18Q300 -18 248 1T158 57T98 144T76 260V708H202V264Q202 238 210 210T236 157T285 118T361 102Q406 102 436 117T485 157T512 209T520 264V708H646V260ZM429 756L360 846L291 756H179L294 900H429L543 756H429Z"  />
<glyph unicode="&#xDC;" horiz-adv-x="722" d="M646 260Q646 196 624 145T564 57T474 2T361 -18Q300 -18 248 1T158 57T98 144T76 260V708H202V264Q202 238 210 210T236 157T285 118T361 102Q406 102 436 117T485 157T512 209T520 264V708H646V260ZM181 828Q181 857 202 878T257 900Q290 900 312 880T335 828Q335 797 313 777T257 756Q224 756 203 777T181 828ZM387 828Q387 857 408 878T463 900Q496 900 518 880T541 828Q541 797 519 777T463 756Q430 756 409 777T387 828Z"  />
<glyph unicode="&#xDD;" horiz-adv-x="630" d="M252 303L-14 708H144L318 426L494 708H644L378 303V0H252V303ZM367 900H503L362 756H268L367 900Z"  />
<glyph unicode="&#xDE;" horiz-adv-x="611" d="M79 708H205V571H317Q368 571 415 561T499 528T556 465T578 366Q578 299 555 258T493 195T403 164T295 156H205V0H79V708ZM281 264Q308 264 337 266T390 278T430 308T446 364Q446 397 432 416T396 446T347 460T295 463H205V264H281Z"  />
<glyph unicode="&#xDF;" horiz-adv-x="611" d="M56 511Q56 647 115 707T296 768Q339 768 378 757T448 722T495 664T513 583Q513 528 486 487T407 425V423Q447 418 477 400T527 355T557 292T567 218Q567 167 550 125T501 52T427 5T332 -12Q311 -12 290 -10T248 -1V100Q262 94 275 92T303 90Q366 90 406 127T447 228Q447 299 405 335T295 371H281V473H289Q334 473 363 497T393 567Q393 609 364 634T292 660Q232 660 204 626T176 539V0H56V511Z"  />
<glyph unicode="&#xE0;" horiz-adv-x="537" d="M368 66H365Q339 25 299 7T211 -12Q178 -12 147 -3T91 24T51 69T36 132Q36 171 50 198T87 244T142 274T206 290T274 297T338 299H368V312Q368 357 337 379T258 402Q220 402 187 389T130 352L67 415Q107 456 160 474T271 492Q322 492 357 481T415 451T450 410T468 362T475 316T476 276V0H368V66ZM361 215H336Q311 215 280 213T222 204T175 182T156 141Q156 124 163 113T183 93T210 82T240 78Q302 78 331 107T361 188V215ZM316 564H222L81 708H217L316 564Z"  />
<glyph unicode="&#xE1;" horiz-adv-x="537" d="M368 66H365Q339 25 299 7T211 -12Q178 -12 147 -3T91 24T51 69T36 132Q36 171 50 198T87 244T142 274T206 290T274 297T338 299H368V312Q368 357 337 379T258 402Q220 402 187 389T130 352L67 415Q107 456 160 474T271 492Q322 492 357 481T415 451T450 410T468 362T475 316T476 276V0H368V66ZM361 215H336Q311 215 280 213T222 204T175 182T156 141Q156 124 163 113T183 93T210 82T240 78Q302 78 331 107T361 188V215ZM321 708H457L316 564H222L321 708Z"  />
<glyph unicode="&#xE2;" horiz-adv-x="537" d="M368 66H365Q339 25 299 7T211 -12Q178 -12 147 -3T91 24T51 69T36 132Q36 171 50 198T87 244T142 274T206 290T274 297T338 299H368V312Q368 357 337 379T258 402Q220 402 187 389T130 352L67 415Q107 456 160 474T271 492Q322 492 357 481T415 451T450 410T468 362T475 316T476 276V0H368V66ZM361 215H336Q311 215 280 213T222 204T175 182T156 141Q156 124 163 113T183 93T210 82T240 78Q302 78 331 107T361 188V215ZM337 564L268 654L199 564H87L202 708H337L451 564H337Z"  />
<glyph unicode="&#xE3;" horiz-adv-x="537" d="M368 66H365Q339 25 299 7T211 -12Q178 -12 147 -3T91 24T51 69T36 132Q36 171 50 198T87 244T142 274T206 290T274 297T338 299H368V312Q368 357 337 379T258 402Q220 402 187 389T130 352L67 415Q107 456 160 474T271 492Q322 492 357 481T415 451T450 410T468 362T475 316T476 276V0H368V66ZM361 215H336Q311 215 280 213T222 204T175 182T156 141Q156 124 163 113T183 93T210 82T240 78Q302 78 331 107T361 188V215ZM85 568Q89 592 96 615T117 655T149 684T197 695Q217 695 237 689T277 677T312 664T341 658Q361 658 371 670T387 700H453Q449 676 442 653T421 613T389 584T341 573Q321 573 301 579T261 592T226 605T197 611Q177 611 167 598T151 568H85Z"  />
<glyph unicode="&#xE4;" horiz-adv-x="537" d="M368 66H365Q339 25 299 7T211 -12Q178 -12 147 -3T91 24T51 69T36 132Q36 171 50 198T87 244T142 274T206 290T274 297T338 299H368V312Q368 357 337 379T258 402Q220 402 187 389T130 352L67 415Q107 456 160 474T271 492Q322 492 357 481T415 451T450 410T468 362T475 316T476 276V0H368V66ZM361 215H336Q311 215 280 213T222 204T175 182T156 141Q156 124 163 113T183 93T210 82T240 78Q302 78 331 107T361 188V215ZM89 636Q89 665 110 686T165 708Q198 708 220 688T243 636Q243 605 221 585T165 564Q132 564 111 585T89 636ZM295 636Q295 665 316 686T371 708Q404 708 426 688T449 636Q449 605 427 585T371 564Q338 564 317 585T295 636Z"  />
<glyph unicode="&#xE5;" horiz-adv-x="537" d="M368 66H365Q339 25 299 7T211 -12Q178 -12 147 -3T91 24T51 69T36 132Q36 171 50 198T87 244T142 274T206 290T274 297T338 299H368V312Q368 357 337 379T258 402Q220 402 187 389T130 352L67 415Q107 456 160 474T271 492Q322 492 357 481T415 451T450 410T468 362T475 316T476 276V0H368V66ZM361 215H336Q311 215 280 213T222 204T175 182T156 141Q156 124 163 113T183 93T210 82T240 78Q302 78 331 107T361 188V215ZM374 655Q374 610 344 582T269 553Q224 553 194 581T164 654Q164 676 172 695T194 727T227 749T269 757Q314 757 344 729T374 655ZM326 655Q326 678 309 693T269 709Q246 709 229 694T212 655Q212 632 229 617T269 601Q292 601 309 616T326 655Z"  />
<glyph unicode="&#xE6;" horiz-adv-x="852" d="M816 204H466Q465 175 476 152T504 112T543 87T583 78Q628 78 658 96T711 143L794 84Q754 33 702 11T583 -12Q522 -12 476 13T404 74Q372 25 322 7T211 -11Q179 -11 148 -3T92 23T52 68T36 133Q36 218 96 253T268 288H366Q366 341 339 372T258 403Q220 403 187 390T130 353L67 416Q107 457 160 475T271 493Q313 495 357 478T430 422Q459 454 496 473T585 492Q643 492 686 472T759 418T802 337T816 237V204ZM239 79Q269 79 293 89T333 114T357 150T366 192V204H306Q281 204 255 202T206 193T170 174T156 141Q156 124 164 112T185 93T212 82T239 79ZM700 288Q697 339 667 370T584 402Q534 402 503 370T468 288H700Z"  />
<glyph unicode="&#xE7;" horiz-adv-x="482" d="M396 336Q375 358 352 371T305 384Q272 384 246 372T202 340T174 294T164 240Q164 212 173 186T201 140T246 108T305 96Q333 96 357 107T398 141L478 55Q460 37 437 25T391 4T345 -8T307 -12L273 -60Q295 -60 316 -62T355 -72T383 -97T394 -143Q394 -170 381 -189T347 -219T302 -235T255 -240Q199 -240 149 -212L171 -166Q209 -186 253 -186Q261 -186 271 -184T289 -178T304 -165T310 -144Q310 -124 293 -116T259 -108Q249 -108 240 -110T222 -115L195 -90L252 -7Q207 1 169 22T104 75T60 148T44 240Q44 297 64 343T120 423T203 474T305 492Q351 492 397 475T479 419L396 336Z"  />
<glyph unicode="&#xE8;" horiz-adv-x="574" d="M164 198Q170 144 206 114T293 84Q338 84 368 102T422 149L508 84Q466 32 414 10T305 -12Q251 -12 203 6T120 57T65 136T44 240Q44 297 64 343T120 423T203 474T305 492Q355 492 396 475T467 424T513 343T530 231V198H164ZM410 288Q409 341 377 371T288 402Q234 402 203 371T164 288H410ZM334 564H240L99 708H235L334 564Z"  />
<glyph unicode="&#xE9;" horiz-adv-x="574" d="M164 198Q170 144 206 114T293 84Q338 84 368 102T422 149L508 84Q466 32 414 10T305 -12Q251 -12 203 6T120 57T65 136T44 240Q44 297 64 343T120 423T203 474T305 492Q355 492 396 475T467 424T513 343T530 231V198H164ZM410 288Q409 341 377 371T288 402Q234 402 203 371T164 288H410ZM339 708H475L334 564H240L339 708Z"  />
<glyph unicode="&#xEA;" horiz-adv-x="574" d="M164 198Q170 144 206 114T293 84Q338 84 368 102T422 149L508 84Q466 32 414 10T305 -12Q251 -12 203 6T120 57T65 136T44 240Q44 297 64 343T120 423T203 474T305 492Q355 492 396 475T467 424T513 343T530 231V198H164ZM410 288Q409 341 377 371T288 402Q234 402 203 371T164 288H410ZM355 564L286 654L217 564H105L220 708H355L469 564H355Z"  />
<glyph unicode="&#xEB;" horiz-adv-x="574" d="M164 198Q170 144 206 114T293 84Q338 84 368 102T422 149L508 84Q466 32 414 10T305 -12Q251 -12 203 6T120 57T65 136T44 240Q44 297 64 343T120 423T203 474T305 492Q355 492 396 475T467 424T513 343T530 231V198H164ZM410 288Q409 341 377 371T288 402Q234 402 203 371T164 288H410ZM107 636Q107 665 128 686T183 708Q216 708 238 688T261 636Q261 605 239 585T183 564Q150 564 129 585T107 636ZM313 636Q313 665 334 686T389 708Q422 708 444 688T467 636Q467 605 445 585T389 564Q356 564 335 585T313 636Z"  />
<glyph unicode="&#xEC;" horiz-adv-x="260" d="M70 480H190V0H70V480ZM189 564H95L-46 708H90L189 564Z"  />
<glyph unicode="&#xED;" horiz-adv-x="260" d="M70 480H190V0H70V480ZM172 708H308L167 564H73L172 708Z"  />
<glyph unicode="&#xEE;" horiz-adv-x="260" d="M70 480H190V0H70V480ZM198 564L129 654L60 564H-52L63 708H198L312 564H198Z"  />
<glyph unicode="&#xEF;" horiz-adv-x="260" d="M70 480H190V0H70V480ZM-50 636Q-50 665 -29 686T26 708Q59 708 81 688T104 636Q104 605 82 585T26 564Q-7 564 -28 585T-50 636ZM156 636Q156 665 177 686T232 708Q265 708 287 688T310 636Q310 605 288 585T232 564Q199 564 178 585T156 636Z"  />
<glyph unicode="&#xF0;" horiz-adv-x="610" d="M506 712L389 658Q425 619 457 576T513 485T552 385T566 277Q566 214 550 161T500 70T418 10T305 -12Q251 -12 203 6T120 57T65 136T44 240Q44 297 64 343T118 423T198 474T295 492Q328 492 357 484T409 454L411 456Q385 498 353 535T285 608L282 611L176 562L116 619L223 669Q216 676 206 684T185 702T164 719T146 734L246 792Q273 771 296 750T331 717L442 768L506 712ZM305 96Q338 96 364 108T408 140T436 186T446 240Q446 268 437 294T409 340T364 372T305 384Q272 384 246 372T202 340T174 294T164 240Q164 212 173 186T201 140T246 108T305 96Z"  />
<glyph unicode="&#xF1;" horiz-adv-x="574" d="M68 480H182V403H184Q201 439 236 465T331 492Q379 492 412 476T467 434T497 374T506 303V0H386V243Q386 263 384 287T374 333T347 369T298 384Q268 384 248 374T214 347T194 308T188 262V0H68V480ZM103 568Q107 592 114 615T135 655T167 684T215 695Q235 695 255 689T295 677T330 664T359 658Q379 658 389 670T405 700H471Q467 676 460 653T439 613T407 584T359 573Q339 573 319 579T279 592T244 605T215 611Q195 611 185 598T169 568H103Z"  />
<glyph unicode="&#xF2;" horiz-adv-x="610" d="M44 240Q44 297 64 343T120 423T203 474T305 492Q359 492 407 474T490 423T545 344T566 240Q566 183 546 137T490 57T407 6T305 -12Q251 -12 203 6T120 57T65 136T44 240ZM164 240Q164 212 173 186T201 140T246 108T305 96Q338 96 364 108T408 140T436 186T446 240Q446 268 437 294T409 340T364 372T305 384Q272 384 246 372T202 340T174 294T164 240ZM352 564H258L117 708H253L352 564Z"  />
<glyph unicode="&#xF3;" horiz-adv-x="610" d="M44 240Q44 297 64 343T120 423T203 474T305 492Q359 492 407 474T490 423T545 344T566 240Q566 183 546 137T490 57T407 6T305 -12Q251 -12 203 6T120 57T65 136T44 240ZM164 240Q164 212 173 186T201 140T246 108T305 96Q338 96 364 108T408 140T436 186T446 240Q446 268 437 294T409 340T364 372T305 384Q272 384 246 372T202 340T174 294T164 240ZM357 708H493L352 564H258L357 708Z"  />
<glyph unicode="&#xF4;" horiz-adv-x="610" d="M44 240Q44 297 64 343T120 423T203 474T305 492Q359 492 407 474T490 423T545 344T566 240Q566 183 546 137T490 57T407 6T305 -12Q251 -12 203 6T120 57T65 136T44 240ZM164 240Q164 212 173 186T201 140T246 108T305 96Q338 96 364 108T408 140T436 186T446 240Q446 268 437 294T409 340T364 372T305 384Q272 384 246 372T202 340T174 294T164 240ZM373 564L304 654L235 564H123L238 708H373L487 564H373Z"  />
<glyph unicode="&#xF5;" horiz-adv-x="610" d="M44 240Q44 297 64 343T120 423T203 474T305 492Q359 492 407 474T490 423T545 344T566 240Q566 183 546 137T490 57T407 6T305 -12Q251 -12 203 6T120 57T65 136T44 240ZM164 240Q164 212 173 186T201 140T246 108T305 96Q338 96 364 108T408 140T436 186T446 240Q446 268 437 294T409 340T364 372T305 384Q272 384 246 372T202 340T174 294T164 240ZM121 568Q125 592 132 615T153 655T185 684T233 695Q253 695 273 689T313 677T348 664T377 658Q397 658 407 670T423 700H489Q485 676 478 653T457 613T425 584T377 573Q357 573 337 579T297 592T262 605T233 611Q213 611 203 598T187 568H121Z"  />
<glyph unicode="&#xF6;" horiz-adv-x="610" d="M44 240Q44 297 64 343T120 423T203 474T305 492Q359 492 407 474T490 423T545 344T566 240Q566 183 546 137T490 57T407 6T305 -12Q251 -12 203 6T120 57T65 136T44 240ZM164 240Q164 212 173 186T201 140T246 108T305 96Q338 96 364 108T408 140T436 186T446 240Q446 268 437 294T409 340T364 372T305 384Q272 384 246 372T202 340T174 294T164 240ZM125 636Q125 665 146 686T201 708Q234 708 256 688T279 636Q279 605 257 585T201 564Q168 564 147 585T125 636ZM331 636Q331 665 352 686T407 708Q440 708 462 688T485 636Q485 605 463 585T407 564Q374 564 353 585T331 636Z"  />
<glyph unicode="&#xF7;" horiz-adv-x="666" d="M604 354V252H62V354H604ZM258 483Q258 514 280 536T333 558Q364 558 386 536T408 483Q408 452 386 430T333 408Q302 408 280 430T258 483ZM258 123Q258 154 280 176T333 198Q364 198 386 176T408 123Q408 92 386 70T333 48Q302 48 280 70T258 123Z"  />
<glyph unicode="&#xF8;" horiz-adv-x="610" d="M384 360Q368 371 348 377T305 384Q272 384 246 372T202 340T174 294T164 240Q164 195 187 160L384 360ZM227 119Q259 96 305 96Q338 96 364 108T408 140T436 186T446 240Q446 283 425 318L227 119ZM579 474L509 403Q535 371 550 330T566 240Q566 183 546 137T490 57T407 6T305 -12Q259 -12 219 1T146 37L76 -34L36 7L103 75Q75 107 60 148T44 240Q44 297 64 343T120 423T203 474T305 492Q351 492 392 479T466 442L537 514L579 474Z"  />
<glyph unicode="&#xF9;" horiz-adv-x="574" d="M506 0H392V77H390Q373 41 338 15T243 -12Q195 -12 162 3T107 45T77 106T68 177V480H188V237Q188 217 190 193T200 147T226 111T276 96Q306 96 326 106T360 133T380 172T386 218V480H506V0ZM334 564H240L99 708H235L334 564Z"  />
<glyph unicode="&#xFA;" horiz-adv-x="574" d="M506 0H392V77H390Q373 41 338 15T243 -12Q195 -12 162 3T107 45T77 106T68 177V480H188V237Q188 217 190 193T200 147T226 111T276 96Q306 96 326 106T360 133T380 172T386 218V480H506V0ZM339 708H475L334 564H240L339 708Z"  />
<glyph unicode="&#xFB;" horiz-adv-x="574" d="M506 0H392V77H390Q373 41 338 15T243 -12Q195 -12 162 3T107 45T77 106T68 177V480H188V237Q188 217 190 193T200 147T226 111T276 96Q306 96 326 106T360 133T380 172T386 218V480H506V0ZM355 564L286 654L217 564H105L220 708H355L469 564H355Z"  />
<glyph unicode="&#xFC;" horiz-adv-x="574" d="M506 0H392V77H390Q373 41 338 15T243 -12Q195 -12 162 3T107 45T77 106T68 177V480H188V237Q188 217 190 193T200 147T226 111T276 96Q306 96 326 106T360 133T380 172T386 218V480H506V0ZM107 636Q107 665 128 686T183 708Q216 708 238 688T261 636Q261 605 239 585T183 564Q150 564 129 585T107 636ZM313 636Q313 665 334 686T389 708Q422 708 444 688T467 636Q467 605 445 585T389 564Q356 564 335 585T313 636Z"  />
<glyph unicode="&#xFD;" horiz-adv-x="519" d="M3 480H135L269 147H271L391 480H516L289 -103Q276 -137 261 -162T224 -205T175 -231T106 -240Q59 -240 14 -228L29 -120Q43 -125 58 -128T90 -132Q112 -132 127 -128T152 -116T170 -94T185 -61L208 -4L3 480ZM312 708H448L307 564H213L312 708Z"  />
<glyph unicode="&#xFE;" horiz-adv-x="630" d="M68 756H188V418H190Q212 454 255 473T349 492Q404 492 448 473T523 419T570 339T586 240Q586 187 569 141T522 61T448 8T354 -12Q320 -12 294 -5T248 13T214 36T191 61H188V-228H68V756ZM466 240Q466 268 457 294T429 340T384 372T325 384Q292 384 266 372T222 340T194 294T184 240Q184 212 193 186T221 140T266 108T325 96Q358 96 384 108T428 140T456 186T466 240Z"  />
<glyph unicode="&#xFF;" horiz-adv-x="519" d="M3 480H135L269 147H271L391 480H516L289 -103Q276 -137 261 -162T224 -205T175 -231T106 -240Q59 -240 14 -228L29 -120Q43 -125 58 -128T90 -132Q112 -132 127 -128T152 -116T170 -94T185 -61L208 -4L3 480ZM80 636Q80 665 101 686T156 708Q189 708 211 688T234 636Q234 605 212 585T156 564Q123 564 102 585T80 636ZM286 636Q286 665 307 686T362 708Q395 708 417 688T440 636Q440 605 418 585T362 564Q329 564 308 585T286 636Z"  />
<glyph unicode="&#x131;" horiz-adv-x="260" d="M70 480H190V0H70V480Z"  />
<glyph unicode="&#x152;" horiz-adv-x="1000" d="M645 420H915V306H645V114H950V0H453Q357 0 283 27T156 102T77 214T50 354Q50 430 77 494T156 606T282 681T453 708H933V594H645V420ZM519 594H456Q433 594 404 590T346 575T288 547T237 503T202 439T188 354Q188 306 201 269T237 206T287 162T345 134T404 119T456 114H519V594Z"  />
<glyph unicode="&#x153;" horiz-adv-x="926" d="M540 204Q539 177 550 155T578 117T617 93T657 84Q702 84 732 102T785 149L868 90Q828 34 776 11T657 -12Q597 -12 552 8T479 65Q443 25 397 7T297 -12Q243 -12 195 6T112 57T57 136T36 240Q36 297 56 343T112 423T195 474T297 492Q351 492 398 473T481 414Q513 454 559 473T659 492Q717 492 760 472T833 418T876 337T890 237V204H540ZM770 288Q769 341 738 371T659 402Q638 402 616 395T577 373T548 338T536 288H770ZM156 240Q156 210 165 183T193 135T238 102T297 90Q331 90 357 102T402 134T430 182T440 240Q440 270 431 297T403 345T358 378T297 390Q264 390 238 378T194 346T166 298T156 240Z"  />
<glyph unicode="&#x160;" horiz-adv-x="574" d="M426 556Q406 585 373 598T302 612Q280 612 260 607T223 591T196 563T186 521Q186 485 211 466T273 433T354 406T435 370T497 309T522 208Q522 151 501 109T445 38T362 -4T263 -18Q197 -18 136 4T31 78L126 170Q149 135 186 116T266 96Q288 96 310 102T350 120T379 150T390 193Q390 232 365 253T303 288T222 316T141 351T79 411T54 512Q54 567 76 607T135 673T219 713T315 726Q371 726 423 709T518 653L426 556ZM220 900L289 810L358 900H468L353 756H220L106 900H220Z"  />
<glyph unicode="&#x161;" horiz-adv-x="444" d="M324 347Q289 396 230 396Q206 396 183 384T160 345Q160 323 179 313T227 296T289 282T352 259T400 216T419 142Q419 99 401 70T353 22T286 -4T212 -12Q156 -12 109 4T25 62L105 137Q128 111 154 95T219 78Q232 78 246 81T272 91T291 108T299 133Q299 158 280 170T232 189T170 203T107 224T59 265T40 337Q40 377 56 406T100 455T162 483T233 492Q281 492 328 476T404 419L324 347ZM155 708L224 618L293 708H403L288 564H155L41 708H155Z"  />
<glyph unicode="&#x178;" horiz-adv-x="630" d="M252 303L-14 708H144L318 426L494 708H644L378 303V0H252V303ZM135 828Q135 857 156 878T211 900Q244 900 266 880T289 828Q289 797 267 777T211 756Q178 756 157 777T135 828ZM341 828Q341 857 362 878T417 900Q450 900 472 880T495 828Q495 797 473 777T417 756Q384 756 363 777T341 828Z"  />
<glyph unicode="&#x17D;" horiz-adv-x="611" d="M35 114L413 594H41V708H570V594L189 114H576V0H35V114ZM239 900L308 810L377 900H487L372 756H239L125 900H239Z"  />
<glyph unicode="&#x17E;" horiz-adv-x="482" d="M34 111L291 382V384H46V480H436V371L176 96H448V0H34V111ZM174 708L243 618L312 708H422L307 564H174L60 708H174Z"  />
<glyph unicode="&#x192;" horiz-adv-x="592" d="M480 336H342L285 48Q266 -48 221 -93T98 -139Q72 -139 46 -133T-4 -115L41 -23Q51 -30 63 -33T88 -37Q127 -37 143 -8T168 67L221 336H108V426H239L261 537Q268 574 281 607T315 666T366 705T441 720Q473 720 501 712T558 689L512 596Q485 612 457 612Q435 612 421 603T398 579T385 546T376 510L358 426H480V336Z"  />
<glyph unicode="&#x2C6;" horiz-adv-x="260" d="M198 564L129 654L60 564H-52L63 708H198L312 564H198Z"  />
<glyph unicode="&#x2C7;" horiz-adv-x="260" d="M63 708L132 618L201 708H311L196 564H63L-51 708H63Z"  />
<glyph unicode="&#x2DA;" horiz-adv-x="260" d="M235 655Q235 610 205 582T130 553Q85 553 55 581T25 654Q25 676 33 695T55 727T88 749T130 757Q175 757 205 729T235 655ZM187 655Q187 678 170 693T130 709Q107 709 90 694T73 655Q73 632 90 617T130 601Q153 601 170 616T187 655Z"  />
<glyph unicode="&#x2DC;" horiz-adv-x="260" d="M-54 568Q-50 592 -43 615T-22 655T10 684T58 695Q78 695 98 689T138 677T173 664T202 658Q222 658 232 670T248 700H314Q310 676 303 653T282 613T250 584T202 573Q182 573 162 579T122 592T87 605T58 611Q38 611 28 598T12 568H-54Z"  />
<glyph unicode="&#x2013;" horiz-adv-x="500" d="M500 198H0V294H500V198Z"  />
<glyph unicode="&#x2014;" horiz-adv-x="1000" d="M1000 198H0V294H1000V198Z"  />
<glyph unicode="&#x2018;" horiz-adv-x="296" d="M174 444H52L137 708H244L174 444Z"  />
<glyph unicode="&#x2019;" horiz-adv-x="296" d="M122 708H244L159 444H52L122 708Z"  />
<glyph unicode="&#x201A;" horiz-adv-x="296" d="M122 138H244L159 -126H52L122 138Z"  />
<glyph unicode="&#x201C;" horiz-adv-x="519" d="M180 444H58L143 708H250L180 444ZM391 444H269L354 708H461L391 444Z"  />
<glyph unicode="&#x201D;" horiz-adv-x="519" d="M339 708H461L376 444H269L339 708ZM128 708H250L165 444H58L128 708Z"  />
<glyph unicode="&#x201E;" horiz-adv-x="519" d="M338 138H460L375 -126H268L338 138ZM129 138H251L166 -126H59L129 138Z"  />
<glyph unicode="&#x2020;" horiz-adv-x="593" d="M353 505H552V409H353V-126H239V409H41V505H239V708H353V505Z"  />
<glyph unicode="&#x2021;" horiz-adv-x="593" d="M353 523H546V427H353V156H546V60H353V-126H239V60H47V156H239V427H47V523H239V708H353V523Z"  />
<glyph unicode="&#x2022;" horiz-adv-x="500" d="M73 354Q73 391 87 423T125 479T181 517T250 531Q287 531 319 517T375 479T413 423T427 354Q427 317 413 285T375 229T319 191T250 177Q213 177 181 191T125 229T87 285T73 354Z"  />
<glyph unicode="&#x2026;" horiz-adv-x="1000" d="M87 70Q87 102 110 125T167 148Q199 148 223 126T247 72Q247 40 224 17T167 -6Q151 -6 137 0T111 16T94 40T87 70ZM420 70Q420 102 443 125T500 148Q532 148 556 126T580 72Q580 40 557 17T500 -6Q484 -6 470 0T444 16T427 40T420 70ZM753 70Q753 102 776 125T833 148Q865 148 889 126T913 72Q913 40 890 17T833 -6Q817 -6 803 0T777 16T760 40T753 70Z"  />
<glyph unicode="&#x2030;" horiz-adv-x="1167" d="M411 165Q411 201 425 233T463 289T519 327T587 341Q623 341 655 327T712 289T750 233T764 165Q764 129 750 97T712 40T656 2T587 -12Q551 -12 519 2T463 40T425 96T411 165ZM807 165Q807 201 821 233T859 289T915 327T983 341Q1019 341 1051 327T1108 289T1146 233T1160 165Q1160 129 1146 97T1108 40T1052 2T983 -12Q947 -12 915 2T859 40T821 96T807 165ZM7 544Q7 580 21 612T59 668T115 706T183 720Q219 720 251 706T308 668T346 612T360 544Q360 508 346 476T308 419T252 381T183 367Q147 367 115 381T59 419T21 475T7 544ZM97 544Q97 506 121 482T183 457Q221 457 245 481T270 544Q270 582 246 606T183 630Q145 630 121 606T97 544ZM501 165Q501 127 525 103T587 78Q625 78 649 102T674 165Q674 203 650 227T587 251Q549 251 525 227T501 165ZM897 165Q897 127 921 103T983 78Q1021 78 1045 102T1070 165Q1070 203 1046 227T983 251Q945 251 921 227T897 165ZM550 740L633 702L217 -32L134 6L550 740Z"  />
<glyph unicode="&#x2039;" horiz-adv-x="296" d="M142 248L258 73L182 22L30 248L182 472L257 421L142 248Z"  />
<glyph unicode="&#x203A;" horiz-adv-x="296" d="M154 246L38 421L114 472L266 246L114 22L39 73L154 246Z"  />
<glyph unicode="&#x20AC;" horiz-adv-x="610" d="M584 25Q555 6 509 -6T408 -18Q340 -18 288 1T197 53T135 129T99 222H15L43 308H88Q87 313 87 319T87 330V352Q87 364 87 376T90 400H18L48 486H103Q118 541 147 585T216 660T308 709T420 726Q468 726 510 717T580 693L542 593Q519 607 485 614T414 621Q384 621 354 612T299 586T254 544T224 486H512L484 400H205Q202 379 202 351V330Q202 324 202 319T204 308H460L433 222H219Q226 194 243 170T285 127T342 99T412 88Q487 88 543 121L584 25Z"  />
<glyph unicode="&#x2122;" horiz-adv-x="1000" d="M162 618H40V708H386V618H264V296H162V618ZM480 708H622L720 440L818 708H960V296H858V564H856L755 296H685L584 564H582V296H480V708Z"  />
<glyph unicode="&#xE300;" horiz-adv-x="260" d="M177 756H83L-58 900H78L177 756Z"  />
<glyph unicode="&#xE301;" horiz-adv-x="260" d="M182 900H318L177 756H83L182 900Z"  />
<glyph unicode="&#xE302;" horiz-adv-x="260" d="M198 756L129 846L60 756H-52L63 900H198L312 756H198Z"  />
<glyph unicode="&#xE303;" horiz-adv-x="260" d="M63 900L132 810L201 900H311L196 756H63L-51 900H63Z"  />
<glyph unicode="&#xE304;" horiz-adv-x="260" d="M-54 760Q-50 784 -43 807T-22 847T10 876T58 887Q78 887 98 881T138 869T173 856T202 850Q222 850 232 862T248 892H314Q310 868 303 845T282 805T250 776T202 765Q182 765 162 771T122 784T87 797T58 803Q38 803 28 790T12 760H-54Z"  />
<glyph unicode="&#xE305;" horiz-adv-x="260" d="M-50 828Q-50 857 -29 878T26 900Q59 900 81 880T104 828Q104 797 82 777T26 756Q-7 756 -28 777T-50 828ZM156 828Q156 857 177 878T232 900Q265 900 287 880T310 828Q310 797 288 777T232 756Q199 756 178 777T156 828Z"  />
<glyph unicode="&#xE308;" horiz-adv-x="260" d="M235 837Q235 792 205 764T130 735Q85 735 55 763T25 836Q25 858 33 877T55 909T88 931T130 939Q175 939 205 911T235 837ZM187 837Q187 860 170 875T130 891Q107 891 90 876T73 837Q73 814 90 799T130 783Q153 783 170 798T187 837Z"  />

</font>
</defs>
</svg>
