<?xml  version="1.0" encoding="UTF-8"?>
<!DOCTYPE svg PUBLIC "-//W3C//DTD SVG 1.0//EN" "http://www.w3.org/TR/2001/REC-SVG-20010904/DTD/svg10.dtd" >
<svg xmlns="http://www.w3.org/2000/svg" >
<metadata>
<version>1.0</version>
<id><![CDATA[Avenir LT W01 65 Medium]]></id>
<vendor>Monotype Imaging Inc.</vendor>
<credits>
<name>Fonts.com WebFonts</name>
<URL>http://webfonts.fonts.com</URL>
<role>Home of the Web fonts</role>
</credits>
<license>
<URL>http://webfonts.fonts.com/Legal</URL>
</license>
<copyright><![CDATA[Part of the digitally encoded machine readable outline data for producing the Typefaces provided is copyrighted © 2005 - 2007 Linotype GmbH, www.linotype.com. All rights reserved. This software is the property of Linotype GmbH, and may not be reproduced, used, displayed, modified, disclosed or transferred without the express written approval of Linotype GmbH.  The digitally encoded machine readable software for producing the Typefaces licensed to you is copyrighted (c) 1989, 1995 Adobe Systems. All Rights Reserved. This software is the property of Adobe Systems Incorporated and its licensors, and may not be reproduced, used, displayed, modified, disclosed or transferred without the express written approval of Adobe. Avenir is a trademark of Linotype GmbH and may be registered in certain jurisdictions. This typeface is original artwork of Adrian Frutiger. The design may be protected in certain jurisdictions.]]></copyright>
<trademark><![CDATA[Avenir is a trademark of Linotype GmbH and may be registered in certain jurisdictions.]]></trademark>
<licensee>
<name></name>
</licensee>
</metadata>
<defs >
<font horiz-adv-x="544" id="294099f3-8d00-4676-afc5-5e9d8d43ad69">
<font-face font-family="" panose-1="2 11 6 3 2 2 3 2 2 4" ascent="924" descent="-282" units-per-em="1000" alphabetic="0">
</font-face>
<missing-glyph horiz-adv-x="0" />

<glyph unicode="&#xA;" />
<glyph unicode="&#xD;" horiz-adv-x="0" />
<glyph unicode=" " horiz-adv-x="278" />
<glyph unicode="!" horiz-adv-x="278" d="M185 204H89V708H185V204ZM73 60Q73 87 92 106T139 126Q166 126 185 107T205 60Q205 33 186 14T139 -6Q112 -6 93 13T73 60Z"  />
<glyph unicode="&quot;" horiz-adv-x="519" d="M146 708H224V462H146V708ZM295 708H373V462H295V708Z"  />
<glyph unicode="#" horiz-adv-x="556" d="M120 204H25V282H131L151 426H56V504H162L190 708H269L241 504H357L385 708H464L436 504H531V426H425L405 282H500V204H394L366 0H287L315 204H199L171 0H92L120 204ZM230 426L210 282H326L346 426H230Z"  />
<glyph unicode="$" horiz-adv-x="556" d="M300 720Q355 720 407 702T498 643L426 573Q403 602 371 618T300 636V400L298 399Q341 387 380 373T450 336T498 279T516 194Q516 148 499 111T452 48T383 6T300 -12V-84H246V-12Q180 -12 124 9T26 84L103 153Q126 115 165 95T246 72V318Q205 328 169 343T104 383T59 441T42 523Q42 566 59 600T104 660T169 701T246 720V792H300V720ZM246 636Q198 628 168 600T138 523Q138 499 147 482T171 451T205 429T246 414V636ZM300 72Q325 75 346 84T384 108T410 143T420 190Q420 216 410 234T383 266T344 288T300 304V72Z"  />
<glyph unicode="%" horiz-adv-x="852" d="M235 -31L175 0L620 740L680 709L235 -31ZM37 549Q37 586 51 618T89 674T145 712T214 726Q251 726 283 712T339 674T377 618T391 549Q391 512 377 480T339 424T283 386T214 372Q177 372 145 386T89 424T51 480T37 549ZM115 549Q115 507 143 479T214 450Q256 450 284 478T313 549Q313 591 285 619T214 648Q172 648 144 620T115 549ZM461 159Q461 196 475 228T513 284T569 322T638 336Q675 336 707 322T763 284T801 228T815 159Q815 122 801 90T763 34T707 -4T638 -18Q601 -18 569 -4T513 34T475 90T461 159ZM539 159Q539 117 567 89T638 60Q680 60 708 88T737 159Q737 201 709 229T638 258Q596 258 568 230T539 159Z"  />
<glyph unicode="&amp;" horiz-adv-x="722" d="M712 0H583L496 94Q451 40 401 11T279 -18Q219 -18 175 -1T103 46T61 111T47 187Q47 224 60 254T95 310T146 355T208 390Q174 426 150 464T125 554Q125 594 140 625T182 677T242 709T314 720Q351 720 384 710T443 680T482 630T497 560Q497 527 484 500T450 450T403 410T350 378L490 232L579 377H688L551 165L712 0ZM401 560Q401 595 377 615T315 636Q277 636 249 615T221 553Q221 535 227 519T244 488T267 460T291 435Q309 445 328 457T364 484T390 517T401 560ZM268 334Q247 322 226 308T187 277T160 239T149 190Q149 164 160 142T190 102T232 76T282 66Q308 66 330 74T372 94T408 123T439 156L268 334Z"  />
<glyph unicode="&apos;" horiz-adv-x="278" d="M178 462H100V708H178V462Z"  />
<glyph unicode="(" horiz-adv-x="278" d="M254 690Q222 639 198 592T158 497T134 396T126 284Q126 174 158 71T254 -120L194 -160Q125 -66 87 47T48 284Q48 399 85 514T194 728L254 690Z"  />
<glyph unicode=")" horiz-adv-x="278" d="M24 -122Q56 -71 80 -24T120 71T144 172T152 284Q152 394 120 497T24 688L84 728Q153 634 191 521T230 284Q230 169 193 54T84 -160L24 -122Z"  />
<glyph unicode="*" horiz-adv-x="464" d="M269 561L408 608L429 541L290 496L378 377L323 336L232 458L143 338L88 379L177 496L35 544L56 609L197 561V708H269V561Z"  />
<glyph unicode="+" horiz-adv-x="666" d="M66 342H294V570H372V342H600V264H372V36H294V264H66V342Z"  />
<glyph unicode="&#x2c;" horiz-adv-x="278" d="M130 -132H48L117 114H214L130 -132Z"  />
<glyph unicode="-" horiz-adv-x="316" d="M281 200H35V284H281V200Z"  />
<glyph unicode="." horiz-adv-x="278" d="M139 -6Q112 -6 93 13T73 60Q73 87 92 106T139 126Q166 126 185 107T205 60Q205 33 186 14T139 -6Z"  />
<glyph unicode="/" horiz-adv-x="389" d="M70 -44L0 -18L320 752L389 726L70 -44Z"  />
<glyph unicode="0" horiz-adv-x="556" d="M34 354Q34 393 38 435T52 517T80 595T125 659T190 703T278 720Q328 720 365 704T430 660T475 595T503 518T518 435T522 354Q522 298 512 234T475 115T401 24T278 -12Q203 -12 156 24T81 115T44 234T34 354ZM130 354Q130 319 134 271T154 179T198 103T278 72Q328 72 357 103T402 178T421 271T426 354Q426 378 425 408T418 470T402 531T376 584T335 622T278 636Q245 636 221 622T181 585T154 532T139 471T132 409T130 354Z"  />
<glyph unicode="1" horiz-adv-x="556" d="M270 598L140 478L84 545L281 708H366V0H270V598Z"  />
<glyph unicode="2" horiz-adv-x="556" d="M46 102L330 384Q345 398 359 414T384 449T401 487T408 529Q408 555 399 576T373 611T334 634T286 642Q234 642 200 613T157 533L53 542Q60 589 80 623T131 681T201 715T287 726Q333 726 373 714T444 677T492 616T510 530Q510 495 500 465T472 407T433 356T387 309L154 84H510V0H46V102Z"  />
<glyph unicode="3" horiz-adv-x="556" d="M147 173Q164 122 192 97T277 72Q305 72 329 81T373 107T403 147T414 200Q414 244 396 270T348 310T284 328T215 332V416Q270 416 305 423T360 445T388 480T396 527Q396 584 362 613T277 642Q238 642 207 620T159 560L61 593Q89 661 146 693T275 726Q318 726 357 715T427 679T474 619T492 533Q492 477 459 433T371 373V371Q404 365 430 349T474 309T501 256T510 193Q510 142 491 104T439 40T364 1T274 -12Q193 -12 132 25T46 142L147 173Z"  />
<glyph unicode="4" horiz-adv-x="556" d="M336 156H34V254L316 708H432V240H532V156H432V0H336V156ZM336 594H334L118 240H336V594Z"  />
<glyph unicode="5" horiz-adv-x="556" d="M471 618H184L181 441Q188 444 201 447T227 452T254 455T276 456Q326 456 366 439T436 391T480 317T496 222Q496 169 477 126T423 52T344 5T247 -12Q175 -12 117 25T34 131L131 164Q150 115 182 94T262 72Q290 72 315 82T359 110T389 156T400 217Q400 295 353 333T229 372Q202 372 161 363T83 335L91 708H471V618Z"  />
<glyph unicode="6" horiz-adv-x="556" d="M220 434H224Q257 450 302 450Q340 450 379 437T449 397T501 327T521 226Q521 167 502 123T449 48T372 3T278 -12Q228 -12 184 4T107 50T55 122T35 216Q35 249 40 276T54 327T77 375T106 425L285 708H398L220 434ZM131 219Q131 187 141 160T171 114T218 83T278 72Q311 72 338 83T384 113T414 160T425 219Q425 251 415 278T385 324T338 355T278 366Q245 366 218 355T172 325T142 278T131 219Z"  />
<glyph unicode="7" horiz-adv-x="556" d="M384 624H42V708H487V626L205 0H97L384 624Z"  />
<glyph unicode="8" horiz-adv-x="556" d="M278 -12Q230 -12 188 2T114 45T65 113T47 203Q47 236 57 264T86 314T128 352T182 376V379Q162 384 142 397T107 430T81 478T71 544Q71 584 87 616T132 672T198 707T278 720Q320 720 357 708T423 672T468 617T485 544Q485 507 475 479T450 430T414 397T374 379V376Q403 368 427 353T470 315T498 264T509 203Q509 153 491 113T442 45T369 3T278 -12ZM167 530Q167 509 174 489T196 454T230 428T278 418Q306 418 326 427T361 452T382 488T389 530Q389 579 359 610T278 642Q232 642 200 611T167 530ZM278 72Q338 72 375 108T413 203Q413 235 403 259T374 300T331 325T278 334Q219 333 181 297T143 203Q143 172 154 148T183 107T226 81T278 72Z"  />
<glyph unicode="9" horiz-adv-x="556" d="M336 274H332Q299 258 254 258Q216 258 177 271T107 311T55 381T35 482Q35 540 54 584T107 659T184 704T278 720Q328 720 372 704T449 658T501 586T521 492Q521 459 516 432T502 381T479 332T450 283L271 0H158L336 274ZM425 489Q425 521 415 548T385 594T338 625T278 636Q245 636 218 625T172 595T142 548T131 489Q131 457 141 430T171 384T218 353T278 342Q311 342 338 353T384 383T414 430T425 489Z"  />
<glyph unicode=":" horiz-adv-x="278" d="M139 348Q112 348 93 367T73 414Q73 441 92 460T139 480Q166 480 185 461T205 414Q205 387 186 368T139 348ZM73 60Q73 87 92 106T139 126Q166 126 185 107T205 60Q205 33 186 14T139 -6Q112 -6 93 13T73 60Z"  />
<glyph unicode=";" horiz-adv-x="278" d="M130 -132H48L117 114H214L130 -132ZM73 413Q73 440 92 459T139 479Q166 479 185 460T205 413Q205 386 186 367T139 347Q112 347 93 366T73 413Z"  />
<glyph unicode="&lt;" horiz-adv-x="666" d="M600 43L66 262V344L600 564V485L148 303L600 121V43Z"  />
<glyph unicode="=" horiz-adv-x="666" d="M600 420V342H66V420H600ZM600 263V185H66V263H600Z"  />
<glyph unicode="&gt;" horiz-adv-x="666" d="M66 563L600 344V262L66 42V121L518 303L66 485V563Z"  />
<glyph unicode="?" horiz-adv-x="500" d="M210 198V259Q210 286 214 304T226 336T247 364T281 397Q297 412 313 427T342 459T363 494T372 536Q372 559 364 578T341 612T308 634T266 642Q217 642 187 611T150 530L48 540Q61 627 120 676T268 726Q310 726 346 714T410 678T452 620T468 541Q468 503 457 475T426 421L366 359L356 350Q340 335 331 325T316 303T308 277T306 242V198H210ZM191 60Q191 87 210 106T257 126Q284 126 303 107T323 60Q323 33 304 14T257 -6Q230 -6 211 13T191 60Z"  />
<glyph unicode="@" horiz-adv-x="800" d="M422 485Q387 485 360 470T315 428T287 368T277 298Q277 261 293 240T348 218Q378 218 403 235T447 279T475 336T485 397Q485 432 470 458T422 485ZM531 267Q526 250 526 242Q526 218 555 218Q576 218 598 233T637 276T666 338T678 414Q678 473 657 518T600 595T517 643T416 660Q352 660 298 636T205 571T144 473T122 352Q122 286 145 230T208 134T303 71T421 48Q493 48 555 74T654 149H733Q712 111 679 80T603 28T514 -6T419 -18Q340 -18 272 11T153 90T73 209T44 356Q44 433 73 500T153 618T271 697T415 726Q485 726 547 703T655 640T729 544T756 422Q756 358 733 306T674 217T597 160T521 140Q495 140 477 156T458 204H454Q431 180 399 160T330 140Q298 140 273 152T230 186T203 235T193 297Q193 346 209 394T254 479T324 540T417 563Q452 563 481 546T524 487H526L542 544H615L531 267Z"  />
<glyph unicode="A" horiz-adv-x="704" d="M313 708H400L703 0H591L520 175H183L113 0H1L313 708ZM485 259L353 584H351L217 259H485Z"  />
<glyph unicode="B" horiz-adv-x="630" d="M91 708H337Q383 708 422 697T490 665T535 610T552 531Q552 470 518 432T430 375V373Q462 371 490 357T538 319T571 264T583 197Q583 149 564 113T510 51T431 13T334 0H91V708ZM187 414H318Q345 414 369 419T411 438T439 471T450 520Q450 562 423 593T338 624H187V414ZM187 84H328Q350 84 376 88T426 106T465 143T481 204Q481 267 440 298T329 330H187V84Z"  />
<glyph unicode="C" horiz-adv-x="704" d="M584 555Q554 594 508 615T413 636Q353 636 305 614T222 552T168 461T149 348Q149 292 167 242T219 154T302 94T413 72Q474 72 520 97T598 167L679 106Q671 95 651 75T598 34T519 -2T411 -18Q327 -18 260 14T145 98T72 215T47 348Q47 430 74 499T149 619T266 698T416 726Q486 726 553 699T664 616L584 555Z"  />
<glyph unicode="D" horiz-adv-x="741" d="M75 708H322Q397 708 453 691T551 646T620 580T664 504T687 426T694 354Q694 286 669 223T595 110T474 30T306 0H75V708ZM171 90H292Q353 90 407 106T503 156T568 238T592 354Q592 388 581 433T540 520T455 589T315 618H171V90Z"  />
<glyph unicode="E" horiz-adv-x="611" d="M91 708H548V618H187V407H523V317H187V90H566V0H91V708Z"  />
<glyph unicode="F" horiz-adv-x="574" d="M91 708H536V618H187V396H512V306H187V0H91V708Z"  />
<glyph unicode="G" horiz-adv-x="778" d="M694 396V47Q668 31 635 19T567 -1T495 -14T426 -18Q336 -18 266 12T147 93T73 211T47 354Q47 433 74 501T150 619T267 697T416 726Q514 726 576 702T680 634L612 561Q568 603 519 619T416 636Q355 636 306 614T222 553T168 464T149 354Q149 294 170 243T228 153T315 94T424 72Q475 72 520 81T598 109V306H441V396H694Z"  />
<glyph unicode="H" horiz-adv-x="741" d="M91 708H187V414H554V708H650V0H554V324H187V0H91V708Z"  />
<glyph unicode="I" horiz-adv-x="278" d="M91 708H187V0H91V708Z"  />
<glyph unicode="J" horiz-adv-x="482" d="M312 708H408V202Q408 135 387 93T335 26T267 -8T201 -18Q126 -18 75 20T9 137L103 158Q111 118 136 95T201 72Q237 72 258 86T292 122T308 174T312 233V708Z"  />
<glyph unicode="K" horiz-adv-x="648" d="M91 708H187V402H195L508 708H642L300 381L665 0H525L195 354H187V0H91V708Z"  />
<glyph unicode="L" horiz-adv-x="519" d="M91 708H187V90H512V0H91V708Z"  />
<glyph unicode="M" horiz-adv-x="906" d="M84 708H227L452 172H456L679 708H822V0H726V582H724L485 0H421L182 582H180V0H84V708Z"  />
<glyph unicode="N" horiz-adv-x="796" d="M91 708H217L607 126H609V708H705V0H583L189 582H187V0H91V708Z"  />
<glyph unicode="O" horiz-adv-x="832" d="M416 -18Q335 -18 267 10T151 89T75 207T47 354Q47 433 74 501T150 619T267 697T416 726Q497 726 565 698T681 619T757 501T785 354Q785 275 758 207T682 89T565 11T416 -18ZM416 72Q477 72 526 94T610 155T664 244T683 354Q683 412 664 463T610 553T526 613T416 636Q355 636 306 614T222 553T168 464T149 354Q149 296 168 245T222 155T306 95T416 72Z"  />
<glyph unicode="P" horiz-adv-x="593" d="M91 708H340Q408 708 452 690T521 643T557 579T567 510Q567 477 557 442T522 378T452 331T340 312H187V0H91V708ZM187 396H313Q341 396 368 400T417 417T452 451T465 510Q465 546 452 568T418 603T369 619T313 624H187V396Z"  />
<glyph unicode="Q" horiz-adv-x="832" d="M822 0H414Q339 0 272 27T155 102T76 216T47 362Q47 440 75 506T152 622T268 698T413 726Q488 726 553 699T668 625T745 513T774 372Q774 327 764 284T733 202T682 134T612 86V84H822V0ZM410 90Q468 90 516 111T599 170T653 259T672 368Q672 424 653 473T598 558T515 615T410 636Q354 636 307 615T224 558T169 474T149 370Q149 312 168 261T221 172T304 112T410 90Z"  />
<glyph unicode="R" horiz-adv-x="611" d="M91 708H340Q408 708 452 690T521 643T557 579T567 510Q567 476 555 445T521 388T466 345T393 323L594 0H474L294 312H187V0H91V708ZM187 396H313Q341 396 368 400T417 417T452 451T465 510Q465 546 452 568T418 603T369 619T313 624H187V396Z"  />
<glyph unicode="S" horiz-adv-x="556" d="M112 148Q138 109 178 91T262 72Q286 72 311 79T356 102T390 139T403 190Q403 231 377 252T313 288T229 316T145 354T80 418T54 528Q54 559 67 594T110 658T184 706T294 726Q352 726 405 710T498 645L420 574Q402 602 369 619T294 636Q254 636 228 626T185 599T163 563T156 528Q156 483 182 459T246 420T330 393T414 360T479 302T505 201Q505 150 486 109T433 40T355 -3T259 -18Q191 -18 130 6T33 80L112 148Z"  />
<glyph unicode="T" horiz-adv-x="574" d="M239 618H11V708H563V618H335V0H239V618Z"  />
<glyph unicode="U" horiz-adv-x="704" d="M174 708V274Q174 241 183 206T213 140T268 91T352 72Q402 72 436 91T491 140T521 205T530 274V708H626V259Q626 197 605 147T547 59T460 2T352 -18Q294 -18 244 2T157 59T99 146T78 259V708H174Z"  />
<glyph unicode="V" horiz-adv-x="630" d="M-6 708H105L313 132H315L531 708H636L357 0H267L-6 708Z"  />
<glyph unicode="W" horiz-adv-x="962" d="M1 708H101L257 142H259L426 708H536L703 142H705L861 708H961L755 0H654L482 578H480L309 0H208L1 708Z"  />
<glyph unicode="X" horiz-adv-x="648" d="M255 372L17 708H140L324 436L506 708H626L390 373L650 0H524L321 307L117 0H-2L255 372Z"  />
<glyph unicode="Y" horiz-adv-x="612" d="M258 302L-10 708H113L306 397L505 708H622L354 302V0H258V302Z"  />
<glyph unicode="Z" horiz-adv-x="593" d="M32 90L435 618H44V708H555V618L154 90H561V0H32V90Z"  />
<glyph unicode="[" horiz-adv-x="278" d="M72 728H246V662H156V-94H246V-160H72V728Z"  />
<glyph unicode="\" horiz-adv-x="389" d="M0 726L69 752L389 -18L319 -44L0 726Z"  />
<glyph unicode="]" horiz-adv-x="278" d="M32 -94H122V662H32V728H206V-160H32V-94Z"  />
<glyph unicode="^" horiz-adv-x="666" d="M293 708H373L586 276H503L333 629L163 276H80L293 708Z"  />
<glyph unicode="_" horiz-adv-x="500" d="M0 -75H500V-125H0V-75Z"  />
<glyph unicode="`" horiz-adv-x="240" d="M186 564H103L-46 708H82L186 564Z"  />
<glyph unicode="a" horiz-adv-x="519" d="M70 416Q108 451 158 468T258 486Q310 486 347 473T409 438T444 388T456 328V86Q456 61 457 40T460 0H380Q377 36 377 72H375Q345 26 304 7T209 -12Q176 -12 146 -3T94 24T58 68T45 130Q45 176 65 207T121 257T204 285T306 294H372V314Q372 332 365 350T344 382T309 405T259 414Q233 414 214 409T178 397T149 379T124 360L70 416ZM324 228Q292 228 259 225T198 211T153 183T135 137Q135 96 162 78T237 60Q274 60 300 72T342 105T365 149T372 198V228H324Z"  />
<glyph unicode="b" horiz-adv-x="611" d="M68 756H158V406H160Q184 443 229 464T325 486Q380 486 424 467T500 415T549 336T566 237Q566 184 549 139T501 60T425 7T325 -12Q277 -12 232 9T160 68H158V0H68V756ZM314 72Q350 72 379 84T428 118T459 170T470 237Q470 273 459 303T428 355T379 389T314 402Q278 402 249 390T200 356T169 304T158 237Q158 201 169 171T200 119T249 85T314 72Z"  />
<glyph unicode="c" horiz-adv-x="482" d="M407 348Q382 374 355 387T289 401Q252 401 225 388T179 351T151 297T141 233Q141 200 152 171T183 119T231 85T294 72Q332 72 359 85T409 125L473 61Q438 22 392 5T293 -12Q238 -12 193 6T114 56T63 134T45 235Q45 290 63 336T113 415T191 466T293 485Q345 485 392 467T475 410L407 348Z"  />
<glyph unicode="d" horiz-adv-x="611" d="M543 0H453V68H451Q425 30 380 9T286 -12Q231 -12 187 7T111 60T62 139T45 237Q45 290 62 335T110 414T186 467T286 486Q337 486 382 465T451 406H453V756H543V0ZM297 72Q333 72 362 84T411 118T442 170T453 237Q453 273 442 303T411 355T362 389T297 402Q261 402 232 390T183 356T152 304T141 237Q141 201 152 171T183 119T232 85T297 72Z"  />
<glyph unicode="e" horiz-adv-x="556" d="M136 204Q136 173 149 148T185 104T236 76T296 66Q338 66 369 85T426 137L494 85Q419 -12 284 -12Q228 -12 183 7T106 59T57 138T40 237Q40 290 58 335T109 414T187 467T285 486Q348 486 391 464T463 407T503 327T516 236V204H136ZM420 276Q419 306 411 331T385 374T343 403T283 414Q250 414 223 402T176 369T147 325T136 276H420Z"  />
<glyph unicode="f" horiz-adv-x="333" d="M103 396H1V474H103V580Q103 675 139 721T265 768Q280 768 296 767T332 761L322 681Q309 686 297 688T271 690Q246 690 231 683T208 661T197 628T194 583V474H301V396H193V0H103V396Z"  />
<glyph unicode="g" horiz-adv-x="611" d="M543 4Q543 -50 525 -94T472 -171T390 -222T284 -240Q216 -240 160 -221T52 -155L113 -79Q148 -117 189 -136T282 -156Q332 -156 365 -142T417 -104T445 -52T453 8V78H450Q424 35 380 15T286 -6Q234 -6 190 12T113 63T63 140T45 237Q45 289 62 334T110 414T186 467T286 486Q334 486 379 465T451 406H453V474H543V4ZM297 402Q261 402 232 390T183 356T152 304T141 237Q141 165 183 122T297 78Q369 78 411 121T453 237Q453 273 442 303T411 355T362 389T297 402Z"  />
<glyph unicode="h" horiz-adv-x="556" d="M68 756H158V401H160Q177 439 219 462T316 486Q350 486 381 476T436 443T474 387T488 305V0H398V280Q398 313 389 336T365 374T331 395T290 402Q262 402 238 393T196 365T168 315T158 244V0H68V756Z"  />
<glyph unicode="i" horiz-adv-x="240" d="M75 474H165V0H75V474ZM54 644Q54 671 73 690T120 710Q147 710 166 691T186 644Q186 617 167 598T120 578Q93 578 74 597T54 644Z"  />
<glyph unicode="j" horiz-adv-x="240" d="M165 474V-68Q165 -86 163 -115T147 -172T104 -220T20 -240Q5 -240 -9 -238T-38 -231L-28 -148Q-20 -151 -10 -153T9 -156Q46 -156 60 -133T75 -64V474H165ZM54 644Q54 671 73 690T120 710Q147 710 166 691T186 644Q186 617 167 598T120 578Q93 578 74 597T54 644Z"  />
<glyph unicode="k" horiz-adv-x="519" d="M68 756H158V268L362 473H487L266 258L506 0H378L158 246V0H68V756Z"  />
<glyph unicode="l" horiz-adv-x="240" d="M75 756H165V0H75V756Z"  />
<glyph unicode="m" horiz-adv-x="852" d="M68 474H152V400H154Q157 410 169 425T201 453T247 476T306 486Q359 486 395 464T454 398Q477 442 519 464T604 486Q659 486 694 468T749 421T776 354T784 276V0H694V264Q694 291 691 316T676 360T645 390T592 402Q527 402 499 362T471 259V0H381V248Q381 282 378 310T364 358T334 390T281 402Q257 402 235 393T195 364T168 316T158 246V0H68V474Z"  />
<glyph unicode="n" horiz-adv-x="556" d="M68 474H158V401H160Q177 439 219 462T316 486Q350 486 381 476T436 443T474 387T488 305V0H398V280Q398 313 389 336T365 374T331 395T290 402Q262 402 238 393T196 365T168 315T158 244V0H68V474Z"  />
<glyph unicode="o" horiz-adv-x="594" d="M141 237Q141 201 152 171T183 119T232 85T297 72Q333 72 362 84T411 118T442 170T453 237Q453 273 442 303T411 355T362 389T297 402Q261 402 232 390T183 356T152 304T141 237ZM45 237Q45 289 64 334T118 413T198 466T297 486Q350 486 396 467T476 413T529 334T549 237Q549 185 530 140T476 61T396 8T297 -12Q244 -12 198 7T118 60T65 139T45 237Z"  />
<glyph unicode="p" horiz-adv-x="611" d="M68 474H158V406H160Q186 444 231 465T325 486Q380 486 424 467T500 414T549 335T566 237Q566 184 549 139T501 60T425 7T325 -12Q274 -12 229 9T160 68H158V-282H68V474ZM314 402Q278 402 249 390T200 356T169 304T158 237Q158 201 169 171T200 119T249 85T314 72Q350 72 379 84T428 118T459 170T470 237Q470 273 459 303T428 355T379 389T314 402Z"  />
<glyph unicode="q" horiz-adv-x="611" d="M543 -228H453V68H451Q427 31 382 10T286 -12Q231 -12 187 7T111 59T62 138T45 237Q45 289 62 334T110 414T186 467T286 486Q334 486 379 465T451 406H453V474H543V-228ZM297 402Q261 402 232 390T183 356T152 304T141 237Q141 201 152 171T183 119T232 85T297 72Q333 72 362 84T411 118T442 170T453 237Q453 273 442 303T411 355T362 389T297 402Z"  />
<glyph unicode="r" horiz-adv-x="370" d="M68 474H158V401H160Q169 420 184 435T217 462T258 479T302 486Q324 486 342 480L338 383Q327 386 316 388T294 390Q228 390 193 353T158 238V0H68V474Z"  />
<glyph unicode="s" horiz-adv-x="444" d="M320 355Q304 375 281 388T223 402Q191 402 168 389T144 349Q144 328 157 315T189 294T229 282T265 275Q294 268 319 258T363 232T392 193T403 137Q403 97 386 69T342 22T281 -4T211 -12Q152 -12 108 6T28 72L96 128Q118 106 145 89T211 72Q228 72 245 75T276 86T298 105T307 132Q307 152 295 165T265 185T228 197T193 205Q164 212 138 221T92 245T60 283T48 340Q48 377 63 404T104 450T162 477T228 486Q276 486 320 468T390 408L320 355Z"  />
<glyph unicode="t" horiz-adv-x="370" d="M322 396H193V181Q193 161 194 142T201 107T221 82T261 72Q277 72 294 75T325 86V4Q309 -5 284 -8T244 -12Q192 -12 164 2T122 40T106 91T103 149V396H-1V474H103V607H193V474H322V396Z"  />
<glyph unicode="u" horiz-adv-x="556" d="M488 0H398V73H396Q379 35 337 12T240 -12Q205 -12 174 -2T120 31T82 87T68 169V474H158V194Q158 161 167 138T191 100T225 79T266 72Q294 72 318 81T360 109T388 159T398 230V474H488V0Z"  />
<glyph unicode="v" horiz-adv-x="500" d="M11 474H115L257 111L393 474H489L303 0H204L11 474Z"  />
<glyph unicode="w" horiz-adv-x="759" d="M11 474H112L219 120H221L334 474H429L549 120H551L653 474H748L595 0H504L379 354H377L264 0H167L11 474Z"  />
<glyph unicode="x" horiz-adv-x="519" d="M198 253L30 474H146L261 306L374 474H483L321 253L513 0H397L257 199L117 0H6L198 253Z"  />
<glyph unicode="y" horiz-adv-x="500" d="M11 474H115L256 104H258L392 474H489L264 -102Q252 -133 239 -158T208 -202T165 -230T102 -240Q82 -240 62 -238T22 -227L33 -145Q60 -156 87 -156Q108 -156 122 -151T147 -135T165 -110T179 -78L208 -3L11 474Z"  />
<glyph unicode="z" horiz-adv-x="463" d="M35 81L304 396H44V474H414V394L143 78H428V0H35V81Z"  />
<glyph unicode="{" horiz-adv-x="333" d="M304 656H259Q244 656 235 649T219 629T211 601T208 569V418Q209 383 200 359T176 319T148 295T124 285V282Q133 281 147 274T176 252T199 212T208 148V-2Q208 -17 210 -32T219 -60T234 -80T259 -88H304V-160H229Q210 -160 192 -151T158 -124T134 -76T124 -7V127Q122 182 98 213T40 244V322Q74 322 98 353T124 439V597Q124 629 133 653T158 694T191 719T229 728H304V656Z"  />
<glyph unicode="|" horiz-adv-x="222" d="M72 756H150V-18H72V756Z"  />
<glyph unicode="}" horiz-adv-x="333" d="M29 -88H74Q89 -88 98 -81T114 -61T122 -33T125 -1V150Q124 185 133 209T157 249T185 273T209 283V286Q200 287 186 294T157 316T134 356T125 420V570Q125 585 123 600T114 628T99 648T74 656H29V728H104Q123 728 141 719T175 692T199 644T209 575V441Q209 386 234 355T293 324V246Q259 246 234 215T209 129V-29Q209 -61 200 -85T175 -126T142 -151T104 -160H29V-88Z"  />
<glyph unicode="~" horiz-adv-x="666" d="M570 316Q540 265 508 247T442 228Q413 228 384 239T326 264Q297 278 271 289T220 300Q204 300 191 294T168 277T150 254T136 228L96 290Q119 329 150 353T229 378Q259 378 287 367T342 342Q368 328 393 317T441 305Q465 305 487 320T530 378L570 316Z"  />
<glyph unicode="&#xA0;" horiz-adv-x="278" />
<glyph unicode="&#xA1;" horiz-adv-x="278" d="M93 282H189V-222H93V282ZM205 426Q205 399 186 380T139 360Q112 360 93 379T73 426Q73 453 92 472T139 492Q166 492 185 473T205 426Z"  />
<glyph unicode="&#xA2;" horiz-adv-x="556" d="M342 66Q405 68 448 118L507 60Q478 27 436 10T342 -12V-78H288V-12Q238 -7 198 14T130 68T87 144T72 237Q72 288 87 330T130 405T198 458T288 486V552H342V486Q390 484 434 465T509 410L444 351Q425 374 398 390T342 408V66ZM288 408Q257 403 234 388T194 349T170 298T162 239Q162 208 170 180T195 128T234 88T288 66V408Z"  />
<glyph unicode="&#xA3;" horiz-adv-x="556" d="M432 328H270V84H516V0H72V84H174V328H78V400H174V500Q174 543 188 583T229 653T298 702T394 720Q442 720 485 706T563 658L502 588Q479 610 454 623T404 636Q378 636 354 628T311 600T281 551T270 476V400H432V328Z"  />
<glyph unicode="&#xA4;" horiz-adv-x="556" d="M78 611L127 563Q162 588 200 600T278 612Q317 612 355 600T429 563L478 611L535 555L486 506Q511 472 523 434T535 355Q535 315 523 277T486 204L535 155L478 98L429 147Q396 122 358 110T278 98Q196 98 127 147L78 98L21 155L70 204Q46 237 34 276T21 355Q21 396 33 434T70 506L21 555L78 611ZM99 355Q99 318 113 286T151 229T208 190T278 176Q315 176 347 190T404 228T443 285T457 355Q457 392 443 424T405 481T348 520T278 534Q241 534 209 520T152 482T113 425T99 355Z"  />
<glyph unicode="&#xA5;" horiz-adv-x="556" d="M236 186H65V252H236V305L219 333H65V399H179L-5 708H95L274 392L459 708H561L375 399H491V333H337L320 305V252H491V186H320V0H236V186Z"  />
<glyph unicode="&#xA6;" horiz-adv-x="222" d="M72 286H150V-18H72V286ZM72 756H150V452H72V756Z"  />
<glyph unicode="&#xA7;" horiz-adv-x="556" d="M399 580Q386 612 360 626T298 642Q259 642 229 623T199 564Q199 534 221 514T275 478T346 445T417 407T472 355T494 279Q494 235 472 202T411 148Q442 127 459 97T476 27Q476 -16 458 -48T411 -101T343 -133T266 -144Q200 -144 145 -116T62 -23L149 18Q163 -24 196 -42T273 -60Q292 -60 310 -55T342 -40T365 -13T374 27Q374 53 352 72T298 107T227 141T156 178T101 226T79 293Q79 353 106 388T177 444Q141 464 119 493T97 562Q97 602 115 633T161 684T226 715T300 726Q327 726 354 721T406 703T451 672T483 626L399 580ZM243 400Q229 395 216 388T193 372T176 350T169 321Q169 298 178 282T202 255T233 236T267 219L344 182Q367 196 385 220T404 270Q404 288 397 302T377 327T351 346T322 362L243 400Z"  />
<glyph unicode="&#xA8;" horiz-adv-x="240" d="M18 714Q41 714 60 698T80 657Q80 630 63 612T18 594Q-9 594 -26 612T-44 657Q-44 682 -25 698T18 714ZM222 714Q245 714 264 698T284 657Q284 630 267 612T222 594Q195 594 178 612T160 657Q160 682 179 698T222 714Z"  />
<glyph unicode="&#xA9;" horiz-adv-x="800" d="M28 354Q28 431 57 498T137 616T255 696T400 726Q477 726 544 697T662 617T742 499T772 354Q772 277 743 210T663 92T545 12T400 -18Q323 -18 256 11T138 91T58 209T28 354ZM589 286Q573 214 524 172T403 129Q351 129 310 145T240 192T196 264T181 357Q181 408 195 450T237 522T306 568T400 585Q475 585 526 547T589 432H512Q502 469 477 491T401 513Q329 513 294 472T259 359Q259 326 268 298T296 248T342 214T403 201Q451 201 477 224T512 286H589ZM94 354Q94 291 118 235T183 138T281 72T400 48Q463 48 519 72T616 137T682 235T706 354Q706 417 682 473T617 570T519 636T400 660Q337 660 281 636T184 571T118 473T94 354Z"  />
<glyph unicode="&#xAA;" horiz-adv-x="337" d="M242 425V469L240 470Q226 441 201 430T140 419Q120 419 101 424T67 440T43 467T34 505Q34 542 54 563T104 594T168 606T230 608H242V618Q242 638 225 652T174 666Q149 666 126 658T85 633L50 678Q74 699 107 709T173 720Q216 720 243 712T284 690T303 658T308 621V425H242ZM240 560Q219 560 195 559T149 554T114 539T100 509Q100 488 118 481T160 473Q202 473 222 492T242 541V560H240Z"  />
<glyph unicode="&#xAB;" horiz-adv-x="500" d="M47 243L192 459L254 418L137 243L255 68L193 27L47 243ZM245 243L390 459L452 418L335 243L453 68L391 27L245 243Z"  />
<glyph unicode="&#xAC;" horiz-adv-x="666" d="M600 141H522V342H66V420H600V141Z"  />
<glyph unicode="&#xAD;" horiz-adv-x="316" d="M281 200H35V284H281V200Z"  />
<glyph unicode="&#xAE;" horiz-adv-x="800" d="M257 569H421Q498 569 534 536T571 441Q571 385 542 357T469 324L580 144H498L392 318H335V144H257V569ZM335 384H392Q410 384 428 385T460 393T484 411T493 444Q493 465 484 477T461 495T428 502T392 503H335V384ZM28 354Q28 431 57 498T137 616T255 696T400 726Q477 726 544 697T662 617T742 499T772 354Q772 277 743 210T663 92T545 12T400 -18Q323 -18 256 11T138 91T58 209T28 354ZM94 354Q94 291 118 235T183 138T281 72T400 48Q463 48 519 72T616 137T682 235T706 354Q706 417 682 473T617 570T519 636T400 660Q337 660 281 636T184 571T118 473T94 354Z"  />
<glyph unicode="&#xAF;" horiz-adv-x="240" d="M264 600H-24V666H264V600Z"  />
<glyph unicode="&#xB0;" horiz-adv-x="400" d="M51 571Q51 602 62 629T94 676T142 708T200 720Q231 720 258 708T305 676T337 629T349 571Q349 540 337 513T305 466T258 434T200 422Q169 422 142 433T95 465T63 513T51 571ZM117 571Q117 536 141 512T200 488Q235 488 259 512T283 571Q283 606 259 630T200 654Q165 654 141 630T117 571Z"  />
<glyph unicode="&#xB1;" horiz-adv-x="666" d="M66 393H294V556H372V393H600V315H372V165H294V315H66V393ZM66 129H600V51H66V129Z"  />
<glyph unicode="&#xB2;" horiz-adv-x="361" d="M26 365L205 525Q220 539 235 557T250 598Q250 624 231 639T185 654Q156 654 138 638T117 595L33 601Q38 659 80 689T185 720Q216 720 243 713T290 690T322 653T334 600Q334 560 314 531T263 476L122 355H335V289H26V365Z"  />
<glyph unicode="&#xB3;" horiz-adv-x="361" d="M140 543H158Q175 543 191 544T220 552T240 569T248 600Q248 624 230 639T183 654Q159 654 141 643T114 609L31 629Q46 677 87 698T179 720Q209 720 235 713T282 692T314 657T326 608Q326 573 305 547T248 512V510Q292 505 314 476T337 407Q337 377 325 354T291 315T241 291T182 283Q125 283 82 306T24 382L107 402Q115 377 132 363T182 349Q213 349 236 366T259 413Q259 434 250 446T226 466T193 475T157 477H140V543Z"  />
<glyph unicode="&#xB4;" horiz-adv-x="240" d="M158 708H286L137 564H54L158 708Z"  />
<glyph unicode="&#xB5;" horiz-adv-x="556" d="M68 474H158V194Q158 161 167 138T191 100T225 79T266 72Q294 72 318 81T360 109T388 159T398 230V474H488V0H398V73H396Q379 35 337 12T240 -12Q194 -12 158 6V-228H68V474Z"  />
<glyph unicode="&#xB6;" horiz-adv-x="600" d="M260 318Q214 318 176 332T110 371T67 430T51 503Q51 601 112 654T279 708H528V-126H450V642H338V-126H260V318Z"  />
<glyph unicode="&#xB7;" horiz-adv-x="278" d="M73 303Q73 330 92 349T139 369Q166 369 185 350T205 303Q205 276 186 257T139 237Q112 237 93 256T73 303Z"  />
<glyph unicode="&#xB8;" horiz-adv-x="240" d="M24 -165Q61 -180 102 -180Q111 -180 121 -178T141 -172T157 -159T163 -138Q163 -119 154 -110T130 -99T100 -98T69 -105L48 -87L109 0H158L114 -61H143Q160 -61 176 -65T206 -78T227 -100T235 -133Q235 -160 224 -178T194 -207T154 -223T110 -228Q83 -228 57 -223T5 -205L24 -165Z"  />
<glyph unicode="&#xB9;" horiz-adv-x="361" d="M154 648L69 576L27 622L155 720H226V289H154V648Z"  />
<glyph unicode="&#xBA;" horiz-adv-x="386" d="M193 720Q268 720 312 679T357 569Q357 500 313 460T193 419Q118 419 74 459T29 569Q29 638 73 679T193 720ZM193 660Q148 660 125 636T101 569Q101 527 124 503T193 479Q238 479 261 503T285 569Q285 611 262 635T193 660Z"  />
<glyph unicode="&#xBB;" horiz-adv-x="500" d="M453 243L308 27L246 68L363 243L245 418L307 459L453 243ZM255 243L110 27L48 68L165 243L47 418L109 459L255 243Z"  />
<glyph unicode="&#xBC;" horiz-adv-x="834" d="M160 648L75 576L33 622L161 720H232V289H160V648ZM673 94H477V152L660 431H739V160H801V94H739V0H673V94ZM667 347H665L549 160H667V347ZM591 740L651 708L212 -32L152 0L591 740Z"  />
<glyph unicode="&#xBD;" horiz-adv-x="834" d="M158 648L73 576L31 622L159 720H230V289H158V648ZM494 76L673 236Q688 250 703 268T718 309Q718 335 699 350T653 365Q624 365 606 349T585 306L501 312Q506 370 548 400T653 431Q684 431 711 424T758 401T790 364T802 311Q802 271 782 242T731 187L590 66H803V0H494V76ZM579 740L639 708L200 -32L140 0L579 740Z"  />
<glyph unicode="&#xBE;" horiz-adv-x="834" d="M139 543H157Q174 543 190 544T219 552T239 569T247 600Q247 624 229 639T182 654Q158 654 140 643T113 609L30 629Q45 677 86 698T178 720Q208 720 234 713T281 692T313 657T325 608Q325 573 304 547T247 512V510Q291 505 313 476T336 407Q336 377 324 354T290 315T240 291T181 283Q124 283 81 306T23 382L106 402Q114 377 131 363T181 349Q212 349 235 366T258 413Q258 434 249 446T225 466T192 475T156 477H139V543ZM693 94H497V152L680 431H759V160H821V94H759V0H693V94ZM693 347H691L575 160H693V347ZM631 740L691 708L252 -32L192 0L631 740Z"  />
<glyph unicode="&#xBF;" horiz-adv-x="500" d="M290 288V227Q290 200 286 182T274 150T252 122T219 89Q203 74 187 59T158 27T137 -9T128 -50Q128 -73 136 -92T159 -126T192 -148T234 -156Q283 -156 313 -125T350 -44L452 -54Q439 -141 380 -190T232 -240Q190 -240 154 -228T90 -192T48 -134T32 -55Q32 -17 43 11T74 65L134 127L144 136Q160 151 169 161T184 183T192 209T194 244V288H290ZM177 426Q177 453 196 472T243 492Q270 492 289 473T309 426Q309 399 290 380T243 360Q216 360 197 379T177 426Z"  />
<glyph unicode="&#xC0;" horiz-adv-x="704" d="M313 708H400L703 0H591L520 175H183L113 0H1L313 708ZM485 259L353 584H351L217 259H485ZM418 748H335L186 892H314L418 748Z"  />
<glyph unicode="&#xC1;" horiz-adv-x="704" d="M313 708H400L703 0H591L520 175H183L113 0H1L313 708ZM485 259L353 584H351L217 259H485ZM390 892H518L369 748H286L390 892Z"  />
<glyph unicode="&#xC2;" horiz-adv-x="704" d="M313 708H400L703 0H591L520 175H183L113 0H1L313 708ZM485 259L353 584H351L217 259H485ZM426 748L352 844L278 748H187L299 892H405L517 748H426Z"  />
<glyph unicode="&#xC3;" horiz-adv-x="704" d="M313 708H400L703 0H591L520 175H183L113 0H1L313 708ZM485 259L353 584H351L217 259H485ZM184 760Q187 779 195 798T215 831T245 855T285 864Q308 864 328 857T369 841Q384 835 395 830T423 824Q443 824 455 837T472 868H520Q517 849 510 831T492 797T465 773T426 764Q405 764 385 770T345 785Q330 791 313 797T279 804Q260 804 249 791T232 760H184Z"  />
<glyph unicode="&#xC4;" horiz-adv-x="704" d="M313 708H400L703 0H591L520 175H183L113 0H1L313 708ZM485 259L353 584H351L217 259H485ZM250 898Q273 898 292 882T312 841Q312 814 295 796T250 778Q223 778 206 796T188 841Q188 866 207 882T250 898ZM454 898Q477 898 496 882T516 841Q516 814 499 796T454 778Q427 778 410 796T392 841Q392 866 411 882T454 898Z"  />
<glyph unicode="&#xC5;" horiz-adv-x="704" d="M313 708H400L703 0H591L520 175H183L113 0H1L313 708ZM485 259L353 584H351L217 259H485ZM250 825Q250 846 258 864T281 895T313 916T352 924Q373 924 391 917T424 896T446 865T454 826Q454 805 446 787T424 756T392 735T352 727Q332 727 314 734T281 755T259 786T250 825ZM412 825Q412 850 394 866T352 882Q328 882 310 866T292 825Q292 801 310 785T352 769Q375 769 393 785T412 825Z"  />
<glyph unicode="&#xC6;" horiz-adv-x="963" d="M450 708H906V618H611V407H888V317H611V90H918V0H515V172H211L110 0H-8L450 708ZM515 262V618H496L263 262H515Z"  />
<glyph unicode="&#xC7;" horiz-adv-x="704" d="M276 -165Q313 -180 354 -180Q363 -180 373 -178T393 -172T409 -159T415 -138Q415 -119 406 -110T382 -99T352 -98T321 -105L300 -87L351 -13Q302 -6 259 14Q192 46 145 98T72 215T47 348Q47 430 74 499T149 619T266 698T416 726Q486 726 553 699T664 616L584 555Q554 594 508 615T413 636Q353 636 305 614T222 552T168 461T149 348Q149 292 167 242T219 154T302 94T413 72Q474 72 520 97T598 167L679 106Q671 95 651 75T598 34T519 -2T411 -18H397L366 -61H395Q412 -61 428 -65T458 -78T479 -100T487 -133Q487 -160 476 -178T446 -207T406 -223T362 -228Q335 -228 309 -223T257 -205L276 -165Z"  />
<glyph unicode="&#xC8;" horiz-adv-x="611" d="M91 708H548V618H187V407H523V317H187V90H566V0H91V708ZM372 748H289L140 892H268L372 748Z"  />
<glyph unicode="&#xC9;" horiz-adv-x="611" d="M91 708H548V618H187V407H523V317H187V90H566V0H91V708ZM344 892H472L323 748H240L344 892Z"  />
<glyph unicode="&#xCA;" horiz-adv-x="611" d="M91 708H548V618H187V407H523V317H187V90H566V0H91V708ZM380 748L306 844L232 748H141L253 892H359L471 748H380Z"  />
<glyph unicode="&#xCB;" horiz-adv-x="611" d="M91 708H548V618H187V407H523V317H187V90H566V0H91V708ZM204 898Q227 898 246 882T266 841Q266 814 249 796T204 778Q177 778 160 796T142 841Q142 866 161 882T204 898ZM408 898Q431 898 450 882T470 841Q470 814 453 796T408 778Q381 778 364 796T346 841Q346 866 365 882T408 898Z"  />
<glyph unicode="&#xCC;" horiz-adv-x="278" d="M91 708H187V0H91V708ZM205 748H122L-27 892H101L205 748Z"  />
<glyph unicode="&#xCD;" horiz-adv-x="278" d="M91 708H187V0H91V708ZM177 892H305L156 748H73L177 892Z"  />
<glyph unicode="&#xCE;" horiz-adv-x="278" d="M91 708H187V0H91V708ZM213 748L139 844L65 748H-26L86 892H192L304 748H213Z"  />
<glyph unicode="&#xCF;" horiz-adv-x="278" d="M91 708H187V0H91V708ZM37 898Q60 898 79 882T99 841Q99 814 82 796T37 778Q10 778 -7 796T-25 841Q-25 866 -6 882T37 898ZM241 898Q264 898 283 882T303 841Q303 814 286 796T241 778Q214 778 197 796T179 841Q179 866 198 882T241 898Z"  />
<glyph unicode="&#xD0;" horiz-adv-x="741" d="M75 336H3V402H75V708H322Q397 708 453 691T551 646T620 580T664 504T687 426T694 354Q694 286 669 223T595 110T474 30T306 0H75V336ZM171 90H292Q353 90 407 106T503 156T568 238T592 354Q592 388 581 433T540 520T455 589T315 618H171V402H405V336H171V90Z"  />
<glyph unicode="&#xD1;" horiz-adv-x="796" d="M91 708H217L607 126H609V708H705V0H583L189 582H187V0H91V708ZM230 760Q233 779 241 798T261 831T291 855T331 864Q354 864 374 857T415 841Q430 835 441 830T469 824Q489 824 501 837T518 868H566Q563 849 556 831T538 797T511 773T472 764Q451 764 431 770T391 785Q376 791 359 797T325 804Q306 804 295 791T278 760H230Z"  />
<glyph unicode="&#xD2;" horiz-adv-x="832" d="M416 -18Q335 -18 267 10T151 89T75 207T47 354Q47 433 74 501T150 619T267 697T416 726Q497 726 565 698T681 619T757 501T785 354Q785 275 758 207T682 89T565 11T416 -18ZM416 72Q477 72 526 94T610 155T664 244T683 354Q683 412 664 463T610 553T526 613T416 636Q355 636 306 614T222 553T168 464T149 354Q149 296 168 245T222 155T306 95T416 72ZM482 748H399L250 892H378L482 748Z"  />
<glyph unicode="&#xD3;" horiz-adv-x="832" d="M416 -18Q335 -18 267 10T151 89T75 207T47 354Q47 433 74 501T150 619T267 697T416 726Q497 726 565 698T681 619T757 501T785 354Q785 275 758 207T682 89T565 11T416 -18ZM416 72Q477 72 526 94T610 155T664 244T683 354Q683 412 664 463T610 553T526 613T416 636Q355 636 306 614T222 553T168 464T149 354Q149 296 168 245T222 155T306 95T416 72ZM454 892H582L433 748H350L454 892Z"  />
<glyph unicode="&#xD4;" horiz-adv-x="832" d="M416 -18Q335 -18 267 10T151 89T75 207T47 354Q47 433 74 501T150 619T267 697T416 726Q497 726 565 698T681 619T757 501T785 354Q785 275 758 207T682 89T565 11T416 -18ZM416 72Q477 72 526 94T610 155T664 244T683 354Q683 412 664 463T610 553T526 613T416 636Q355 636 306 614T222 553T168 464T149 354Q149 296 168 245T222 155T306 95T416 72ZM490 748L416 844L342 748H251L363 892H469L581 748H490Z"  />
<glyph unicode="&#xD5;" horiz-adv-x="832" d="M416 -18Q335 -18 267 10T151 89T75 207T47 354Q47 433 74 501T150 619T267 697T416 726Q497 726 565 698T681 619T757 501T785 354Q785 275 758 207T682 89T565 11T416 -18ZM416 72Q477 72 526 94T610 155T664 244T683 354Q683 412 664 463T610 553T526 613T416 636Q355 636 306 614T222 553T168 464T149 354Q149 296 168 245T222 155T306 95T416 72ZM248 760Q251 779 259 798T279 831T309 855T349 864Q372 864 392 857T433 841Q448 835 459 830T487 824Q507 824 519 837T536 868H584Q581 849 574 831T556 797T529 773T490 764Q469 764 449 770T409 785Q394 791 377 797T343 804Q324 804 313 791T296 760H248Z"  />
<glyph unicode="&#xD6;" horiz-adv-x="832" d="M416 -18Q335 -18 267 10T151 89T75 207T47 354Q47 433 74 501T150 619T267 697T416 726Q497 726 565 698T681 619T757 501T785 354Q785 275 758 207T682 89T565 11T416 -18ZM416 72Q477 72 526 94T610 155T664 244T683 354Q683 412 664 463T610 553T526 613T416 636Q355 636 306 614T222 553T168 464T149 354Q149 296 168 245T222 155T306 95T416 72ZM314 898Q337 898 356 882T376 841Q376 814 359 796T314 778Q287 778 270 796T252 841Q252 866 271 882T314 898ZM518 898Q541 898 560 882T580 841Q580 814 563 796T518 778Q491 778 474 796T456 841Q456 866 475 882T518 898Z"  />
<glyph unicode="&#xD7;" horiz-adv-x="666" d="M278 303L66 515L121 570L333 358L546 570L600 515L388 303L600 91L544 36L333 248L122 36L68 92L278 303Z"  />
<glyph unicode="&#xD8;" horiz-adv-x="832" d="M246 131Q280 103 322 88T416 72Q477 72 526 94T610 155T664 244T683 354Q683 408 667 455T621 540L246 131ZM581 580Q548 606 507 621T416 636Q355 636 306 614T222 553T168 464T149 354Q149 302 164 256T207 173L581 580ZM55 8L140 101Q95 151 71 215T47 354Q47 433 74 501T150 619T267 697T416 726Q483 726 541 706T646 650L729 740L771 702L688 612Q734 563 759 497T785 354Q785 275 758 207T682 89T565 11T416 -18Q347 -18 288 2T182 61L98 -30L55 8Z"  />
<glyph unicode="&#xD9;" horiz-adv-x="704" d="M174 708V274Q174 241 183 206T213 140T268 91T352 72Q402 72 436 91T491 140T521 205T530 274V708H626V259Q626 197 605 147T547 59T460 2T352 -18Q294 -18 244 2T157 59T99 146T78 259V708H174ZM418 748H335L186 892H314L418 748Z"  />
<glyph unicode="&#xDA;" horiz-adv-x="704" d="M174 708V274Q174 241 183 206T213 140T268 91T352 72Q402 72 436 91T491 140T521 205T530 274V708H626V259Q626 197 605 147T547 59T460 2T352 -18Q294 -18 244 2T157 59T99 146T78 259V708H174ZM390 892H518L369 748H286L390 892Z"  />
<glyph unicode="&#xDB;" horiz-adv-x="704" d="M174 708V274Q174 241 183 206T213 140T268 91T352 72Q402 72 436 91T491 140T521 205T530 274V708H626V259Q626 197 605 147T547 59T460 2T352 -18Q294 -18 244 2T157 59T99 146T78 259V708H174ZM426 748L352 844L278 748H187L299 892H405L517 748H426Z"  />
<glyph unicode="&#xDC;" horiz-adv-x="704" d="M174 708V274Q174 241 183 206T213 140T268 91T352 72Q402 72 436 91T491 140T521 205T530 274V708H626V259Q626 197 605 147T547 59T460 2T352 -18Q294 -18 244 2T157 59T99 146T78 259V708H174ZM250 898Q273 898 292 882T312 841Q312 814 295 796T250 778Q223 778 206 796T188 841Q188 866 207 882T250 898ZM454 898Q477 898 496 882T516 841Q516 814 499 796T454 778Q427 778 410 796T392 841Q392 866 411 882T454 898Z"  />
<glyph unicode="&#xDD;" horiz-adv-x="612" d="M258 302L-10 708H113L306 397L505 708H622L354 302V0H258V302ZM344 892H472L323 748H240L344 892Z"  />
<glyph unicode="&#xDE;" horiz-adv-x="593" d="M91 708H187V563H340Q408 563 452 545T521 498T557 434T567 365Q567 332 557 297T522 233T452 186T340 167H187V0H91V708ZM187 251H313Q341 251 368 255T417 272T452 306T465 365Q465 401 452 423T418 458T369 474T313 479H187V251Z"  />
<glyph unicode="&#xDF;" horiz-adv-x="611" d="M68 509Q68 562 77 609T110 691T179 747T293 768Q335 768 371 757T436 722T480 665T496 587Q496 525 466 486T385 432V430Q415 425 445 411T499 372T539 309T555 220Q555 166 537 123T487 50T410 4T313 -12Q276 -12 242 -3V78Q267 72 295 72Q369 72 414 112T459 228Q459 268 446 297T409 345T354 373T285 383H271V467H287Q338 467 369 496T400 576Q400 606 390 627T364 660T328 678T288 684Q250 684 225 672T185 637T164 585T158 520V0H68V509Z"  />
<glyph unicode="&#xE0;" horiz-adv-x="519" d="M70 416Q108 451 158 468T258 486Q310 486 347 473T409 438T444 388T456 328V86Q456 61 457 40T460 0H380Q377 36 377 72H375Q345 26 304 7T209 -12Q176 -12 146 -3T94 24T58 68T45 130Q45 176 65 207T121 257T204 285T306 294H372V314Q372 332 365 350T344 382T309 405T259 414Q233 414 214 409T178 397T149 379T124 360L70 416ZM324 228Q292 228 259 225T198 211T153 183T135 137Q135 96 162 78T237 60Q274 60 300 72T342 105T365 149T372 198V228H324ZM326 564H243L94 708H222L326 564Z"  />
<glyph unicode="&#xE1;" horiz-adv-x="519" d="M70 416Q108 451 158 468T258 486Q310 486 347 473T409 438T444 388T456 328V86Q456 61 457 40T460 0H380Q377 36 377 72H375Q345 26 304 7T209 -12Q176 -12 146 -3T94 24T58 68T45 130Q45 176 65 207T121 257T204 285T306 294H372V314Q372 332 365 350T344 382T309 405T259 414Q233 414 214 409T178 397T149 379T124 360L70 416ZM324 228Q292 228 259 225T198 211T153 183T135 137Q135 96 162 78T237 60Q274 60 300 72T342 105T365 149T372 198V228H324ZM298 708H426L277 564H194L298 708Z"  />
<glyph unicode="&#xE2;" horiz-adv-x="519" d="M70 416Q108 451 158 468T258 486Q310 486 347 473T409 438T444 388T456 328V86Q456 61 457 40T460 0H380Q377 36 377 72H375Q345 26 304 7T209 -12Q176 -12 146 -3T94 24T58 68T45 130Q45 176 65 207T121 257T204 285T306 294H372V314Q372 332 365 350T344 382T309 405T259 414Q233 414 214 409T178 397T149 379T124 360L70 416ZM324 228Q292 228 259 225T198 211T153 183T135 137Q135 96 162 78T237 60Q274 60 300 72T342 105T365 149T372 198V228H324ZM334 564L260 660L186 564H95L207 708H313L425 564H334Z"  />
<glyph unicode="&#xE3;" horiz-adv-x="519" d="M70 416Q108 451 158 468T258 486Q310 486 347 473T409 438T444 388T456 328V86Q456 61 457 40T460 0H380Q377 36 377 72H375Q345 26 304 7T209 -12Q176 -12 146 -3T94 24T58 68T45 130Q45 176 65 207T121 257T204 285T306 294H372V314Q372 332 365 350T344 382T309 405T259 414Q233 414 214 409T178 397T149 379T124 360L70 416ZM324 228Q292 228 259 225T198 211T153 183T135 137Q135 96 162 78T237 60Q274 60 300 72T342 105T365 149T372 198V228H324ZM92 576Q95 595 103 614T123 647T153 671T193 680Q216 680 236 673T277 657Q292 651 303 646T331 640Q351 640 363 653T380 684H428Q425 665 418 647T400 613T373 589T334 580Q313 580 293 586T253 601Q238 607 221 613T187 620Q168 620 157 607T140 576H92Z"  />
<glyph unicode="&#xE4;" horiz-adv-x="519" d="M70 416Q108 451 158 468T258 486Q310 486 347 473T409 438T444 388T456 328V86Q456 61 457 40T460 0H380Q377 36 377 72H375Q345 26 304 7T209 -12Q176 -12 146 -3T94 24T58 68T45 130Q45 176 65 207T121 257T204 285T306 294H372V314Q372 332 365 350T344 382T309 405T259 414Q233 414 214 409T178 397T149 379T124 360L70 416ZM324 228Q292 228 259 225T198 211T153 183T135 137Q135 96 162 78T237 60Q274 60 300 72T342 105T365 149T372 198V228H324ZM158 714Q181 714 200 698T220 657Q220 630 203 612T158 594Q131 594 114 612T96 657Q96 682 115 698T158 714ZM362 714Q385 714 404 698T424 657Q424 630 407 612T362 594Q335 594 318 612T300 657Q300 682 319 698T362 714Z"  />
<glyph unicode="&#xE5;" horiz-adv-x="519" d="M70 416Q108 451 158 468T258 486Q310 486 347 473T409 438T444 388T456 328V86Q456 61 457 40T460 0H380Q377 36 377 72H375Q345 26 304 7T209 -12Q176 -12 146 -3T94 24T58 68T45 130Q45 176 65 207T121 257T204 285T306 294H372V314Q372 332 365 350T344 382T309 405T259 414Q233 414 214 409T178 397T149 379T124 360L70 416ZM324 228Q292 228 259 225T198 211T153 183T135 137Q135 96 162 78T237 60Q274 60 300 72T342 105T365 149T372 198V228H324ZM158 651Q158 672 166 690T189 721T221 742T260 750Q281 750 299 743T332 722T354 691T362 652Q362 631 354 613T332 582T300 561T260 553Q240 553 222 560T189 581T167 612T158 651ZM320 651Q320 676 302 692T260 708Q236 708 218 692T200 651Q200 627 218 611T260 595Q283 595 301 611T320 651Z"  />
<glyph unicode="&#xE6;" horiz-adv-x="852" d="M813 204H460Q460 175 469 149T497 104T542 72T603 60Q646 60 677 81T726 135L799 80Q757 32 712 7T601 -18Q544 -18 496 3T416 79Q383 34 336 8T222 -18Q174 -18 140 -5T83 30T50 79T39 135Q39 177 56 204T102 247T165 269T236 276H376V291Q376 342 346 378T257 414Q215 414 185 400T123 360L67 417Q105 451 155 468T256 486Q305 486 351 469T426 410Q438 423 453 436T488 461T533 479T592 486Q660 486 703 460T770 397T804 318T813 246V204ZM234 204Q182 204 159 187T135 135Q135 100 164 77T234 54Q262 54 287 63T332 90T364 133T376 190V204H234ZM717 276Q716 303 709 327T687 369T649 397T591 408Q559 408 535 398T494 369T469 327T460 276H717Z"  />
<glyph unicode="&#xE7;" horiz-adv-x="482" d="M175 -165Q212 -180 253 -180Q262 -180 272 -178T292 -172T308 -159T314 -138Q314 -119 305 -110T281 -99T251 -98T220 -105L199 -87L253 -9Q221 -5 192 6Q147 24 114 56T63 134T45 235Q45 290 63 336T113 415T191 466T293 485Q345 485 392 467T475 410L407 348Q382 374 355 387T289 401Q252 401 225 388T179 351T151 297T141 233Q141 200 152 171T183 119T231 85T294 72Q332 72 359 85T409 125L473 61Q438 22 391 5Q348 -11 300 -12L265 -61H294Q311 -61 327 -65T357 -78T378 -100T386 -133Q386 -160 375 -178T345 -207T305 -223T261 -228Q234 -228 208 -223T156 -205L175 -165Z"  />
<glyph unicode="&#xE8;" horiz-adv-x="556" d="M136 204Q136 173 149 148T185 104T236 76T296 66Q338 66 369 85T426 137L494 85Q419 -12 284 -12Q228 -12 183 7T106 59T57 138T40 237Q40 290 58 335T109 414T187 467T285 486Q348 486 391 464T463 407T503 327T516 236V204H136ZM420 276Q419 306 411 331T385 374T343 403T283 414Q250 414 223 402T176 369T147 325T136 276H420ZM344 564H261L112 708H240L344 564Z"  />
<glyph unicode="&#xE9;" horiz-adv-x="556" d="M136 204Q136 173 149 148T185 104T236 76T296 66Q338 66 369 85T426 137L494 85Q419 -12 284 -12Q228 -12 183 7T106 59T57 138T40 237Q40 290 58 335T109 414T187 467T285 486Q348 486 391 464T463 407T503 327T516 236V204H136ZM420 276Q419 306 411 331T385 374T343 403T283 414Q250 414 223 402T176 369T147 325T136 276H420ZM316 708H444L295 564H212L316 708Z"  />
<glyph unicode="&#xEA;" horiz-adv-x="556" d="M136 204Q136 173 149 148T185 104T236 76T296 66Q338 66 369 85T426 137L494 85Q419 -12 284 -12Q228 -12 183 7T106 59T57 138T40 237Q40 290 58 335T109 414T187 467T285 486Q348 486 391 464T463 407T503 327T516 236V204H136ZM420 276Q419 306 411 331T385 374T343 403T283 414Q250 414 223 402T176 369T147 325T136 276H420ZM352 564L278 660L204 564H113L225 708H331L443 564H352Z"  />
<glyph unicode="&#xEB;" horiz-adv-x="556" d="M136 204Q136 173 149 148T185 104T236 76T296 66Q338 66 369 85T426 137L494 85Q419 -12 284 -12Q228 -12 183 7T106 59T57 138T40 237Q40 290 58 335T109 414T187 467T285 486Q348 486 391 464T463 407T503 327T516 236V204H136ZM420 276Q419 306 411 331T385 374T343 403T283 414Q250 414 223 402T176 369T147 325T136 276H420ZM176 714Q199 714 218 698T238 657Q238 630 221 612T176 594Q149 594 132 612T114 657Q114 682 133 698T176 714ZM380 714Q403 714 422 698T442 657Q442 630 425 612T380 594Q353 594 336 612T318 657Q318 682 337 698T380 714Z"  />
<glyph unicode="&#xEC;" horiz-adv-x="240" d="M75 474H165V0H75V474ZM186 564H103L-46 708H82L186 564Z"  />
<glyph unicode="&#xED;" horiz-adv-x="240" d="M75 474H165V0H75V474ZM158 708H286L137 564H54L158 708Z"  />
<glyph unicode="&#xEE;" horiz-adv-x="240" d="M75 474H165V0H75V474ZM194 564L120 660L46 564H-45L67 708H173L285 564H194Z"  />
<glyph unicode="&#xEF;" horiz-adv-x="240" d="M75 474H165V0H75V474ZM18 714Q41 714 60 698T80 657Q80 630 63 612T18 594Q-9 594 -26 612T-44 657Q-44 682 -25 698T18 714ZM222 714Q245 714 264 698T284 657Q284 630 267 612T222 594Q195 594 178 612T160 657Q160 682 179 698T222 714Z"  />
<glyph unicode="&#xF0;" horiz-adv-x="594" d="M475 712L363 657Q402 616 435 572T494 480T534 380T549 269Q549 206 532 154T483 65T404 8T297 -12Q244 -12 198 7T118 60T65 139T45 237Q45 289 64 334T118 413T198 466T297 486Q330 486 364 475T422 436L424 438Q396 488 359 532T280 618L173 566L126 612L232 665L147 736L226 782L315 704L423 756L475 712ZM141 237Q141 201 152 171T183 119T232 85T297 72Q333 72 362 84T411 118T442 170T453 237Q453 273 442 303T411 355T362 389T297 402Q261 402 232 390T183 356T152 304T141 237Z"  />
<glyph unicode="&#xF1;" horiz-adv-x="556" d="M68 474H158V401H160Q177 439 219 462T316 486Q350 486 381 476T436 443T474 387T488 305V0H398V280Q398 313 389 336T365 374T331 395T290 402Q262 402 238 393T196 365T168 315T158 244V0H68V474ZM110 576Q113 595 121 614T141 647T171 671T211 680Q234 680 254 673T295 657Q310 651 321 646T349 640Q369 640 381 653T398 684H446Q443 665 436 647T418 613T391 589T352 580Q331 580 311 586T271 601Q256 607 239 613T205 620Q186 620 175 607T158 576H110Z"  />
<glyph unicode="&#xF2;" horiz-adv-x="594" d="M141 237Q141 201 152 171T183 119T232 85T297 72Q333 72 362 84T411 118T442 170T453 237Q453 273 442 303T411 355T362 389T297 402Q261 402 232 390T183 356T152 304T141 237ZM45 237Q45 289 64 334T118 413T198 466T297 486Q350 486 396 467T476 413T529 334T549 237Q549 185 530 140T476 61T396 8T297 -12Q244 -12 198 7T118 60T65 139T45 237ZM363 564H280L131 708H259L363 564Z"  />
<glyph unicode="&#xF3;" horiz-adv-x="594" d="M141 237Q141 201 152 171T183 119T232 85T297 72Q333 72 362 84T411 118T442 170T453 237Q453 273 442 303T411 355T362 389T297 402Q261 402 232 390T183 356T152 304T141 237ZM45 237Q45 289 64 334T118 413T198 466T297 486Q350 486 396 467T476 413T529 334T549 237Q549 185 530 140T476 61T396 8T297 -12Q244 -12 198 7T118 60T65 139T45 237ZM336 708H464L315 564H232L336 708Z"  />
<glyph unicode="&#xF4;" horiz-adv-x="594" d="M141 237Q141 201 152 171T183 119T232 85T297 72Q333 72 362 84T411 118T442 170T453 237Q453 273 442 303T411 355T362 389T297 402Q261 402 232 390T183 356T152 304T141 237ZM45 237Q45 289 64 334T118 413T198 466T297 486Q350 486 396 467T476 413T529 334T549 237Q549 185 530 140T476 61T396 8T297 -12Q244 -12 198 7T118 60T65 139T45 237ZM371 564L297 660L223 564H132L244 708H350L462 564H371Z"  />
<glyph unicode="&#xF5;" horiz-adv-x="594" d="M141 237Q141 201 152 171T183 119T232 85T297 72Q333 72 362 84T411 118T442 170T453 237Q453 273 442 303T411 355T362 389T297 402Q261 402 232 390T183 356T152 304T141 237ZM45 237Q45 289 64 334T118 413T198 466T297 486Q350 486 396 467T476 413T529 334T549 237Q549 185 530 140T476 61T396 8T297 -12Q244 -12 198 7T118 60T65 139T45 237ZM129 576Q132 595 140 614T160 647T190 671T230 680Q253 680 273 673T314 657Q329 651 340 646T368 640Q388 640 400 653T417 684H465Q462 665 455 647T437 613T410 589T371 580Q350 580 330 586T290 601Q275 607 258 613T224 620Q205 620 194 607T177 576H129Z"  />
<glyph unicode="&#xF6;" horiz-adv-x="594" d="M141 237Q141 201 152 171T183 119T232 85T297 72Q333 72 362 84T411 118T442 170T453 237Q453 273 442 303T411 355T362 389T297 402Q261 402 232 390T183 356T152 304T141 237ZM45 237Q45 289 64 334T118 413T198 466T297 486Q350 486 396 467T476 413T529 334T549 237Q549 185 530 140T476 61T396 8T297 -12Q244 -12 198 7T118 60T65 139T45 237ZM195 714Q218 714 237 698T257 657Q257 630 240 612T195 594Q168 594 151 612T133 657Q133 682 152 698T195 714ZM399 714Q422 714 441 698T461 657Q461 630 444 612T399 594Q372 594 355 612T337 657Q337 682 356 698T399 714Z"  />
<glyph unicode="&#xF7;" horiz-adv-x="666" d="M600 341V263H66V341H600ZM267 470Q267 497 286 516T333 536Q360 536 379 517T399 470Q399 443 380 424T333 404Q306 404 287 423T267 470ZM267 134Q267 161 286 180T333 200Q360 200 379 181T399 134Q399 107 380 88T333 68Q306 68 287 87T267 134Z"  />
<glyph unicode="&#xF8;" horiz-adv-x="594" d="M399 367Q379 384 354 393T297 402Q261 402 232 390T183 356T152 304T141 237Q141 175 171 135L399 367ZM41 4L108 72Q79 104 62 146T45 237Q45 289 64 334T118 413T198 466T297 486Q345 486 386 471T459 428L534 503L570 467L495 391Q521 359 535 320T549 237Q549 185 530 140T476 61T396 8T297 -12Q255 -12 217 1T147 37L78 -32L41 4ZM208 99Q244 72 297 72Q333 72 362 84T411 118T442 170T453 237Q453 289 431 326L208 99Z"  />
<glyph unicode="&#xF9;" horiz-adv-x="556" d="M488 0H398V73H396Q379 35 337 12T240 -12Q205 -12 174 -2T120 31T82 87T68 169V474H158V194Q158 161 167 138T191 100T225 79T266 72Q294 72 318 81T360 109T388 159T398 230V474H488V0ZM344 564H261L112 708H240L344 564Z"  />
<glyph unicode="&#xFA;" horiz-adv-x="556" d="M488 0H398V73H396Q379 35 337 12T240 -12Q205 -12 174 -2T120 31T82 87T68 169V474H158V194Q158 161 167 138T191 100T225 79T266 72Q294 72 318 81T360 109T388 159T398 230V474H488V0ZM316 708H444L295 564H212L316 708Z"  />
<glyph unicode="&#xFB;" horiz-adv-x="556" d="M488 0H398V73H396Q379 35 337 12T240 -12Q205 -12 174 -2T120 31T82 87T68 169V474H158V194Q158 161 167 138T191 100T225 79T266 72Q294 72 318 81T360 109T388 159T398 230V474H488V0ZM352 564L278 660L204 564H113L225 708H331L443 564H352Z"  />
<glyph unicode="&#xFC;" horiz-adv-x="556" d="M488 0H398V73H396Q379 35 337 12T240 -12Q205 -12 174 -2T120 31T82 87T68 169V474H158V194Q158 161 167 138T191 100T225 79T266 72Q294 72 318 81T360 109T388 159T398 230V474H488V0ZM176 714Q199 714 218 698T238 657Q238 630 221 612T176 594Q149 594 132 612T114 657Q114 682 133 698T176 714ZM380 714Q403 714 422 698T442 657Q442 630 425 612T380 594Q353 594 336 612T318 657Q318 682 337 698T380 714Z"  />
<glyph unicode="&#xFD;" horiz-adv-x="500" d="M11 474H115L256 104H258L392 474H489L264 -102Q252 -133 239 -158T208 -202T165 -230T102 -240Q82 -240 62 -238T22 -227L33 -145Q60 -156 87 -156Q108 -156 122 -151T147 -135T165 -110T179 -78L208 -3L11 474ZM288 708H416L267 564H184L288 708Z"  />
<glyph unicode="&#xFE;" horiz-adv-x="611" d="M68 756H158V406H160Q184 443 229 464T325 486Q380 486 424 467T500 415T549 336T566 237Q566 184 549 139T501 60T425 7T325 -12Q277 -12 232 9T160 68H158V-228H68V756ZM314 72Q350 72 379 84T428 118T459 170T470 237Q470 273 459 303T428 355T379 389T314 402Q278 402 249 390T200 356T169 304T158 237Q158 201 169 171T200 119T249 85T314 72Z"  />
<glyph unicode="&#xFF;" horiz-adv-x="500" d="M11 474H115L256 104H258L392 474H489L264 -102Q252 -133 239 -158T208 -202T165 -230T102 -240Q82 -240 62 -238T22 -227L33 -145Q60 -156 87 -156Q108 -156 122 -151T147 -135T165 -110T179 -78L208 -3L11 474ZM148 714Q171 714 190 698T210 657Q210 630 193 612T148 594Q121 594 104 612T86 657Q86 682 105 698T148 714ZM352 714Q375 714 394 698T414 657Q414 630 397 612T352 594Q325 594 308 612T290 657Q290 682 309 698T352 714Z"  />
<glyph unicode="&#x131;" horiz-adv-x="240" d="M75 474H165V0H75V474Z"  />
<glyph unicode="&#x152;" horiz-adv-x="981" d="M923 0H467Q369 0 293 26T165 100T85 212T58 354Q58 434 86 499T167 611T295 683T467 708H911V618H617V407H893V317H617V90H923V0ZM521 618H460Q386 618 330 597T237 539T180 455T160 354Q160 298 179 250T236 166T330 110T460 90H521V618Z"  />
<glyph unicode="&#x153;" horiz-adv-x="926" d="M868 86Q800 -12 669 -12Q611 -12 558 9T475 80Q466 67 452 51T415 21T359 -2T280 -12Q223 -12 178 7T102 59T55 138T39 237Q39 291 57 336T107 415T185 467T285 486Q347 486 394 464T477 395Q489 411 506 427T545 456T597 477T664 486Q715 486 756 469T826 420T871 345T887 248V204H528Q528 178 536 153T561 109T606 78T671 66Q714 66 744 84T794 135L868 86ZM791 276Q790 301 782 326T758 370T718 402T662 414Q630 414 605 401T563 367T537 323T528 276H791ZM438 237Q438 269 430 300T403 355T357 393T288 408Q250 408 221 395T173 358T145 304T135 237Q135 202 144 171T172 117T218 80T280 66Q326 66 356 80T405 119T430 174T438 237Z"  />
<glyph unicode="&#x160;" horiz-adv-x="556" d="M112 148Q138 109 178 91T262 72Q286 72 311 79T356 102T390 139T403 190Q403 231 377 252T313 288T229 316T145 354T80 418T54 528Q54 559 67 594T110 658T184 706T294 726Q352 726 405 710T498 645L420 574Q402 602 369 619T294 636Q254 636 228 626T185 599T163 563T156 528Q156 483 182 459T246 420T330 393T414 360T479 302T505 201Q505 150 486 109T433 40T355 -3T259 -18Q191 -18 130 6T33 80L112 148ZM113 892H200L278 796L352 892H443L331 748H225L113 892Z"  />
<glyph unicode="&#x161;" horiz-adv-x="444" d="M320 355Q304 375 281 388T223 402Q191 402 168 389T144 349Q144 328 157 315T189 294T229 282T265 275Q294 268 319 258T363 232T392 193T403 137Q403 97 386 69T342 22T281 -4T211 -12Q152 -12 108 6T28 72L96 128Q118 106 145 89T211 72Q228 72 245 75T276 86T298 105T307 132Q307 152 295 165T265 185T228 197T193 205Q164 212 138 221T92 245T60 283T48 340Q48 377 63 404T104 450T162 477T228 486Q276 486 320 468T390 408L320 355ZM57 708H144L222 612L296 708H387L275 564H169L57 708Z"  />
<glyph unicode="&#x178;" horiz-adv-x="612" d="M258 302L-10 708H113L306 397L505 708H622L354 302V0H258V302ZM204 898Q227 898 246 882T266 841Q266 814 249 796T204 778Q177 778 160 796T142 841Q142 866 161 882T204 898ZM408 898Q431 898 450 882T470 841Q470 814 453 796T408 778Q381 778 364 796T346 841Q346 866 365 882T408 898Z"  />
<glyph unicode="&#x17D;" horiz-adv-x="593" d="M32 90L435 618H44V708H555V618L154 90H561V0H32V90ZM132 892H219L297 796L371 892H462L350 748H244L132 892Z"  />
<glyph unicode="&#x17E;" horiz-adv-x="463" d="M35 81L304 396H44V474H414V394L143 78H428V0H35V81ZM67 708H154L232 612L306 708H397L285 564H179L67 708Z"  />
<glyph unicode="&#x192;" horiz-adv-x="556" d="M449 353H315L242 -15Q231 -74 189 -109T85 -144Q56 -144 33 -137T-12 -119L26 -48Q57 -60 80 -60Q102 -60 115 -52T137 -30T150 -1T157 29L220 353H112V425H234L261 566Q275 635 316 677T414 720Q446 720 477 715T531 696L491 621Q480 629 468 632T433 636Q407 636 383 614T348 536L329 425H449V353Z"  />
<glyph unicode="&#x2C6;" horiz-adv-x="240" d="M194 564L120 660L46 564H-45L67 708H173L285 564H194Z"  />
<glyph unicode="&#x2C7;" horiz-adv-x="240" d="M-45 708H42L120 612L194 708H285L173 564H67L-45 708Z"  />
<glyph unicode="&#x2DA;" horiz-adv-x="240" d="M18 651Q18 672 26 690T49 721T81 742T120 750Q141 750 159 743T192 722T214 691T222 652Q222 631 214 613T192 582T160 561T120 553Q100 553 82 560T49 581T27 612T18 651ZM180 651Q180 676 162 692T120 708Q96 708 78 692T60 651Q60 627 78 611T120 595Q143 595 161 611T180 651Z"  />
<glyph unicode="&#x2DC;" horiz-adv-x="240" d="M-48 576Q-45 595 -37 614T-17 647T13 671T53 680Q76 680 96 673T137 657Q152 651 163 646T191 640Q211 640 223 653T240 684H288Q285 665 278 647T260 613T233 589T194 580Q173 580 153 586T113 601Q98 607 81 613T47 620Q28 620 17 607T0 576H-48Z"  />
<glyph unicode="&#x2013;" horiz-adv-x="500" d="M500 204H0V282H500V204Z"  />
<glyph unicode="&#x2014;" horiz-adv-x="1000" d="M1000 204H0V282H1000V204Z"  />
<glyph unicode="&#x2018;" horiz-adv-x="278" d="M140 708H222L153 462H56L140 708Z"  />
<glyph unicode="&#x2019;" horiz-adv-x="278" d="M138 462H56L125 708H222L138 462Z"  />
<glyph unicode="&#x201A;" horiz-adv-x="278" d="M138 -132H56L125 114H222L138 -132Z"  />
<glyph unicode="&#x201C;" horiz-adv-x="519" d="M185 462H88L172 708H254L185 462ZM362 462H265L349 708H431L362 462Z"  />
<glyph unicode="&#x201D;" horiz-adv-x="519" d="M170 462H88L157 708H254L170 462ZM347 462H265L334 708H431L347 462Z"  />
<glyph unicode="&#x201E;" horiz-adv-x="519" d="M170 -132H88L157 114H254L170 -132ZM347 -132H265L334 114H431L347 -132Z"  />
<glyph unicode="&#x2020;" horiz-adv-x="556" d="M233 427H35V505H233V708H323V505H521V427H323V-126H233V427Z"  />
<glyph unicode="&#x2021;" horiz-adv-x="556" d="M233 66H41V144H233V450H41V528H233V708H323V528H515V450H323V144H515V66H323V-126H233V66Z"  />
<glyph unicode="&#x2022;" horiz-adv-x="500" d="M73 354Q73 391 87 423T125 479T181 517T250 531Q287 531 319 517T375 479T413 423T427 354Q427 317 413 285T375 229T319 191T250 177Q213 177 181 191T125 229T87 285T73 354Z"  />
<glyph unicode="&#x2026;" horiz-adv-x="1000" d="M167 -6Q140 -6 121 13T101 60Q101 87 120 106T167 126Q194 126 213 107T233 60Q233 33 214 14T167 -6ZM500 -6Q473 -6 454 13T434 60Q434 87 453 106T500 126Q527 126 546 107T566 60Q566 33 547 14T500 -6ZM833 -6Q806 -6 787 13T767 60Q767 87 786 106T833 126Q860 126 879 107T899 60Q899 33 880 14T833 -6Z"  />
<glyph unicode="&#x2030;" horiz-adv-x="1056" d="M507 -18Q473 -18 444 -5T392 30T358 81T345 145Q345 179 357 208T392 260T443 294T507 307Q541 307 570 295T622 260T657 209T670 145Q670 111 657 82T622 30T571 -5T507 -18ZM507 54Q545 54 571 80T598 145Q598 183 572 209T507 235Q469 235 443 209T417 145Q417 107 443 81T507 54ZM711 145Q711 179 723 208T758 260T809 294T873 307Q907 307 936 295T988 260T1023 209T1036 145Q1036 111 1023 82T988 30T937 -5T873 -18Q839 -18 810 -5T758 30T724 81T711 145ZM873 54Q911 54 937 80T964 145Q964 183 938 209T873 235Q835 235 809 209T783 145Q783 107 809 81T873 54ZM155 -31L93 0L538 740L598 710L155 -31ZM20 558Q20 592 32 621T67 673T118 707T182 720Q216 720 245 708T297 673T332 622T345 558Q345 524 332 495T297 443T246 408T182 395Q148 395 119 408T67 443T33 494T20 558ZM92 558Q92 520 118 494T182 467Q220 467 246 493T273 558Q273 596 247 622T182 648Q144 648 118 622T92 558Z"  />
<glyph unicode="&#x2039;" horiz-adv-x="315" d="M54 243L199 459L261 418L144 243L262 68L200 27L54 243Z"  />
<glyph unicode="&#x203A;" horiz-adv-x="315" d="M54 68L171 243L53 418L115 459L261 243L116 27L54 68Z"  />
<glyph unicode="&#x20AC;" horiz-adv-x="556" d="M504 609Q481 626 448 634T373 643Q308 643 261 604T191 483H467L450 416H179Q177 399 176 381T175 343Q175 330 175 318Q175 306 176 295H418L401 230H182Q195 146 234 104T349 62Q391 62 421 78T474 121L523 72Q497 37 450 13T345 -12Q238 -12 176 49T95 230H23L42 295H88Q87 307 87 319Q87 332 87 346Q87 383 90 416H24L45 483H102Q116 543 142 587T204 661T283 705T377 720Q419 720 459 710T525 684L504 609Z"  />
<glyph unicode="&#x2122;" horiz-adv-x="1000" d="M158 642H34V708H360V642H236V296H158V642ZM439 708H558L669 392H672L783 708H902V296H824V640H822L702 296H639L519 640H517V296H439V708Z"  />

</font>
</defs>
</svg>
